  0
SECTION
  2
HEADER
  9
$ACADVER
  1
AC1015
  9
$ACADMAINTVER
 70
    20
  9
$DWGCODEPAGE
  3
ANSI_1252
  9
$INSBASE
 10
0.0
 20
0.0
 30
0.0
  9
$EXTMIN
 10
-0.0000000000000693
 20
4.168671513979573
 30
-0.1167154837279601
  9
$EXTMAX
 10
42.36671548372796
 20
46.41867151397963
 30
3.61671548372796
  9
$LIMMIN
 10
0.0
 20
0.0
  9
$LIMMAX
 10
12.0
 20
9.0
  9
$ORTHOMODE
 70
     0
  9
$REGENMODE
 70
     1
  9
$FILLMODE
 70
     1
  9
$QTEXTMODE
 70
     0
  9
$MIRRTEXT
 70
     1
  9
$LTSCALE
 40
1.0
  9
$ATTMODE
 70
     1
  9
$TEXTSIZE
 40
0.2
  9
$TRACEWID
 40
0.05
  9
$TEXTSTYLE
  7
Standard
  9
$CLAYER
  8
0
  9
$CELTYPE
  6
ByLayer
  9
$CECOLOR
 62
   256
  9
$CELTSCALE
 40
1.0
  9
$DISPSILH
 70
     0
  9
$DIMSCALE
 40
3.0
  9
$DIMASZ
 40
0.2
  9
$DIMEXO
 40
0.1
  9
$DIMDLI
 40
0.38
  9
$DIMRND
 40
0.0
  9
$DIMDLE
 40
0.0
  9
$DIMEXE
 40
0.18
  9
$DIMTP
 40
0.0
  9
$DIMTM
 40
0.0
  9
$DIMTXT
 40
0.2
  9
$DIMCEN
 40
0.09
  9
$DIMTSZ
 40
0.0
  9
$DIMTOL
 70
     0
  9
$DIMLIM
 70
     0
  9
$DIMTIH
 70
     1
  9
$DIMTOH
 70
     1
  9
$DIMSE1
 70
     0
  9
$DIMSE2
 70
     0
  9
$DIMTAD
 70
     0
  9
$DIMZIN
 70
     0
  9
$DIMBLK
  1
ArchTick
  9
$DIMASO
 70
     1
  9
$DIMSHO
 70
     1
  9
$DIMPOST
  1
"
  9
$DIMAPOST
  1

  9
$DIMALT
 70
     0
  9
$DIMALTD
 70
     2
  9
$DIMALTF
 40
25.4
  9
$DIMLFAC
 40
1.0
  9
$DIMTOFL
 70
     0
  9
$DIMTVP
 40
0.0
  9
$DIMTIX
 70
     0
  9
$DIMSOXD
 70
     0
  9
$DIMSAH
 70
     0
  9
$DIMBLK1
  1

  9
$DIMBLK2
  1

  9
$DIMSTYLE
  2
OWP Standard
  9
$DIMCLRD
 70
     0
  9
$DIMCLRE
 70
     0
  9
$DIMCLRT
 70
     0
  9
$DIMTFAC
 40
1.0
  9
$DIMGAP
 40
0.09
  9
$DIMJUST
 70
     0
  9
$DIMSD1
 70
     0
  9
$DIMSD2
 70
     0
  9
$DIMTOLJ
 70
     1
  9
$DIMTZIN
 70
     0
  9
$DIMALTZ
 70
     0
  9
$DIMALTTZ
 70
     0
  9
$DIMUPT
 70
     0
  9
$DIMDEC
 70
     4
  9
$DIMTDEC
 70
     4
  9
$DIMALTU
 70
     2
  9
$DIMALTTD
 70
     2
  9
$DIMTXSTY
  7
Standard
  9
$DIMAUNIT
 70
     0
  9
$DIMADEC
 70
     0
  9
$DIMALTRND
 40
0.0
  9
$DIMAZIN
 70
     0
  9
$DIMDSEP
 70
    46
  9
$DIMATFIT
 70
     3
  9
$DIMFRAC
 70
     0
  9
$DIMLDRBLK
  1

  9
$DIMLUNIT
 70
     5
  9
$DIMLWD
 70
    -2
  9
$DIMLWE
 70
    -2
  9
$DIMTMOVE
 70
     0
  9
$LUNITS
 70
     2
  9
$LUPREC
 70
     4
  9
$SKETCHINC
 40
0.1
  9
$FILLETRAD
 40
0.0
  9
$AUNITS
 70
     0
  9
$AUPREC
 70
     0
  9
$MENU
  1
.
  9
$ELEVATION
 40
0.0
  9
$PELEVATION
 40
0.0
  9
$THICKNESS
 40
0.0
  9
$LIMCHECK
 70
     0
  9
$CHAMFERA
 40
0.5
  9
$CHAMFERB
 40
0.5
  9
$CHAMFERC
 40
1.0
  9
$CHAMFERD
 40
0.0
  9
$SKPOLY
 70
     0
  9
$TDCREATE
 40
2455345.447112824
  9
$TDUCREATE
 40
2455345.613779491
  9
$TDUPDATE
 40
2455485.463285185
  9
$TDUUPDATE
 40
2455485.629951852
  9
$TDINDWG
 40
0.0271316667
  9
$TDUSRTIMER
 40
0.0271316667
  9
$USRTIMER
 70
     1
  9
$ANGBASE
 50
0.0
  9
$ANGDIR
 70
     0
  9
$PDMODE
 70
     0
  9
$PDSIZE
 40
0.0
  9
$PLINEWID
 40
0.0
  9
$SPLFRAME
 70
     0
  9
$SPLINETYPE
 70
     6
  9
$SPLINESEGS
 70
     8
  9
$HANDSEED
  5
CF6
  9
$SURFTAB1
 70
     6
  9
$SURFTAB2
 70
     6
  9
$SURFTYPE
 70
     6
  9
$SURFU
 70
     6
  9
$SURFV
 70
     6
  9
$UCSBASE
  2

  9
$UCSNAME
  2

  9
$UCSORG
 10
0.0
 20
0.0
 30
0.0
  9
$UCSXDIR
 10
1.0
 20
0.0
 30
0.0
  9
$UCSYDIR
 10
0.0
 20
1.0
 30
0.0
  9
$UCSORTHOREF
  2

  9
$UCSORTHOVIEW
 70
     1
  9
$UCSORGTOP
 10
0.0
 20
0.0
 30
0.0
  9
$UCSORGBOTTOM
 10
0.0
 20
0.0
 30
0.0
  9
$UCSORGLEFT
 10
0.0
 20
0.0
 30
0.0
  9
$UCSORGRIGHT
 10
0.0
 20
0.0
 30
0.0
  9
$UCSORGFRONT
 10
0.0
 20
0.0
 30
0.0
  9
$UCSORGBACK
 10
0.0
 20
0.0
 30
0.0
  9
$PUCSBASE
  2

  9
$PUCSNAME
  2

  9
$PUCSORG
 10
0.0
 20
0.0
 30
0.0
  9
$PUCSXDIR
 10
1.0
 20
0.0
 30
0.0
  9
$PUCSYDIR
 10
0.0
 20
1.0
 30
0.0
  9
$PUCSORTHOREF
  2

  9
$PUCSORTHOVIEW
 70
     0
  9
$PUCSORGTOP
 10
0.0
 20
0.0
 30
0.0
  9
$PUCSORGBOTTOM
 10
0.0
 20
0.0
 30
0.0
  9
$PUCSORGLEFT
 10
0.0
 20
0.0
 30
0.0
  9
$PUCSORGRIGHT
 10
0.0
 20
0.0
 30
0.0
  9
$PUCSORGFRONT
 10
0.0
 20
0.0
 30
0.0
  9
$PUCSORGBACK
 10
0.0
 20
0.0
 30
0.0
  9
$USERI1
 70
     0
  9
$USERI2
 70
     0
  9
$USERI3
 70
     0
  9
$USERI4
 70
     0
  9
$USERI5
 70
     0
  9
$USERR1
 40
0.0
  9
$USERR2
 40
0.0
  9
$USERR3
 40
0.0
  9
$USERR4
 40
0.0
  9
$USERR5
 40
0.0
  9
$WORLDVIEW
 70
     1
  9
$SHADEDGE
 70
     3
  9
$SHADEDIF
 70
    70
  9
$TILEMODE
 70
     1
  9
$MAXACTVP
 70
    64
  9
$PINSBASE
 10
0.0
 20
0.0
 30
0.0
  9
$PLIMCHECK
 70
     0
  9
$PEXTMIN
 10
1.000000000000000E+20
 20
1.000000000000000E+20
 30
1.000000000000000E+20
  9
$PEXTMAX
 10
-1.000000000000000E+20
 20
-1.000000000000000E+20
 30
-1.000000000000000E+20
  9
$PLIMMIN
 10
0.0
 20
0.0
  9
$PLIMMAX
 10
12.0
 20
9.0
  9
$UNITMODE
 70
     0
  9
$VISRETAIN
 70
     1
  9
$PLINEGEN
 70
     0
  9
$PSLTSCALE
 70
     1
  9
$TREEDEPTH
 70
  3020
  9
$CMLSTYLE
  2
Standard
  9
$CMLJUST
 70
     0
  9
$CMLSCALE
 40
1.0
  9
$PROXYGRAPHICS
 70
     1
  9
$MEASUREMENT
 70
     0
  9
$CELWEIGHT
370
    -1
  9
$ENDCAPS
280
     0
  9
$JOINSTYLE
280
     0
  9
$LWDISPLAY
290
     0
  9
$INSUNITS
 70
     1
  9
$HYPERLINKBASE
  1

  9
$STYLESHEET
  1

  9
$XEDIT
290
     1
  9
$CEPSNTYPE
380
     0
  9
$PSTYLEMODE
290
     1
  9
$FINGERPRINTGUID
  2
{774A7331-219F-4CCB-9A62-A06D008E4566}
  9
$VERSIONGUID
  2
{B7F704C5-26F5-42D5-9CDC-F6BF552D936A}
  9
$EXTNAMES
290
     1
  9
$PSVPSCALE
 40
0.0
  9
$OLESTARTUP
290
     0
  0
ENDSEC
  0
SECTION
  2
CLASSES
  0
CLASS
  1
ACDBDICTIONARYWDFLT
  2
AcDbDictionaryWithDefault
  3
ObjectDBX Classes
 90
        0
280
     0
281
     0
  0
CLASS
  1
ACDBPLACEHOLDER
  2
AcDbPlaceHolder
  3
ObjectDBX Classes
 90
        0
280
     0
281
     0
  0
CLASS
  1
LAYOUT
  2
AcDbLayout
  3
ObjectDBX Classes
 90
        0
280
     0
281
     0
  0
CLASS
  1
TABLESTYLE
  2
AcDbTableStyle
  3
ObjectDBX Classes
 90
     4095
280
     0
281
     0
  0
CLASS
  1
DIMASSOC
  2
AcDbDimAssoc
  3
"AcDbDimAssoc|Product Desc:     AcDim ARX App For Dimension|Company:          Autodesk, Inc.|WEB Address:      www.autodesk.com"
 90
    32768
280
     0
281
     0
  0
CLASS
  1
DICTIONARYVAR
  2
AcDbDictionaryVar
  3
ObjectDBX Classes
 90
        0
280
     0
281
     0
  0
CLASS
  1
MATERIAL
  2
AcDbMaterial
  3
ObjectDBX Classes
 90
     1153
280
     0
281
     0
  0
CLASS
  1
VISUALSTYLE
  2
AcDbVisualStyle
  3
ObjectDBX Classes
 90
     4095
280
     0
281
     0
  0
CLASS
  1
SCALE
  2
AcDbScale
  3
ObjectDBX Classes
 90
     1153
280
     0
281
     0
  0
CLASS
  1
MLEADERSTYLE
  2
AcDbMLeaderStyle
  3
ACDB_MLEADERSTYLE_CLASS
 90
     4095
280
     0
281
     0
  0
CLASS
  1
CELLSTYLEMAP
  2
AcDbCellStyleMap
  3
ObjectDBX Classes
 90
     1152
280
     0
281
     0
  0
CLASS
  1
ACSH_HISTORY_CLASS
  2
AcDbShHistory
  3
ObjectDBX Classes
 90
     1153
280
     0
281
     0
  0
CLASS
  1
ACAD_EVALUATION_GRAPH
  2
AcDbEvalGraph
  3
ObjectDBX Classes
 90
     1153
280
     0
281
     0
  0
CLASS
  1
ACSH_EXTRUSION_CLASS
  2
AcDbShExtrusion
  3
ObjectDBX Classes
 90
     1153
280
     0
281
     0
  0
CLASS
  1
ACSH_REVOLVE_CLASS
  2
AcDbShRevolve
  3
ObjectDBX Classes
 90
     1153
280
     0
281
     0
  0
CLASS
  1
ACSH_BOOLEAN_CLASS
  2
AcDbShBoolean
  3
ObjectDBX Classes
 90
     1153
280
     0
281
     0
  0
CLASS
  1
ACDBPERSSUBENTMANAGER
  2
AcDbPersSubentManager
  3
AcDbPersSubentManager
 90
     1024
280
     0
281
     0
  0
CLASS
  1
AEC_REFEDIT_STATUS_TRACKER
  2
AecDbRefEditStatusTracker
  3
AecArchBase60|Product Desc: Autodesk Architectural Desktop 2007 |Company: Autodesk,Inc. |WEB Address: www.autodesk.com
 90
      129
280
     0
281
     0
  0
CLASS
  1
NPOCOLLECTION
  2
AcDbImpNonPersistentObjectsCollection
  3
ObjectDBX Classes
 90
     1153
280
     0
281
     0
  0
CLASS
  1
SORTENTSTABLE
  2
AcDbSortentsTable
  3
ObjectDBX Classes
 90
        0
280
     0
281
     0
  0
CLASS
  1
SOLID_BACKGROUND
  2
AcDbSolidBackground
  3
SCENEOE
 90
     4095
280
     0
281
     0
  0
ENDSEC
  0
SECTION
  2
TABLES
  0
TABLE
  2
VPORT
  5
8
330
0
100
AcDbSymbolTable
 70
     1
  0
VPORT
  5
166
330
8
100
AcDbSymbolTableRecord
100
AcDbViewportTableRecord
  2
*Active
 70
     0
 10
0.0
 20
0.0
 11
1.0
 21
1.0
 12
38.15854918204664
 22
17.60076715200806
 13
0.0
 23
0.0
 14
0.5
 24
0.5
 15
0.5
 25
0.5
 16
0.0
 26
0.0
 36
1.0
 17
14.15899784183346
 27
9.193587566268956
 37
5.908216693218284
 40
55.25204261639537
 41
1.881139489194499
 42
50.0
 43
0.0
 44
0.0
 50
0.0
 51
0.0
 71
     0
 72
   100
 73
     1
 74
     3
 75
     0
 76
     0
 77
     0
 78
     0
281
     0
 65
     1
110
0.0
120
0.0
130
0.0
111
1.0
121
0.0
131
0.0
112
0.0
122
1.0
132
0.0
 79
     0
146
0.0
  0
ENDTAB
  0
TABLE
  2
LTYPE
  5
5
330
0
100
AcDbSymbolTable
 70
     2
  0
LTYPE
  5
14
330
5
100
AcDbSymbolTableRecord
100
AcDbLinetypeTableRecord
  2
ByBlock
 70
     0
  3

 72
    65
 73
     0
 40
0.0
  0
LTYPE
  5
15
330
5
100
AcDbSymbolTableRecord
100
AcDbLinetypeTableRecord
  2
ByLayer
 70
     0
  3

 72
    65
 73
     0
 40
0.0
  0
LTYPE
  5
16
330
5
100
AcDbSymbolTableRecord
100
AcDbLinetypeTableRecord
  2
Continuous
 70
     0
  3
Solid line
 72
    65
 73
     0
 40
0.0
  0
ENDTAB
  0
TABLE
  2
LAYER
  5
2
102
{ACAD_XDICTIONARY
360
244
102
}
330
0
100
AcDbSymbolTable
 70
     3
  0
LAYER
  5
10
102
{ACAD_XDICTIONARY
360
B83
102
}
330
2
100
AcDbSymbolTableRecord
100
AcDbLayerTableRecord
  2
0
 70
     0
 62
     7
  6
Continuous
370
    -3
390
F
  0
LAYER
  5
AB
102
{ACAD_XDICTIONARY
360
B85
102
}
330
2
100
AcDbSymbolTableRecord
100
AcDbLayerTableRecord
  2
Layer1
 70
     0
 62
     1
  6
Continuous
290
     0
370
    -3
390
F
  0
LAYER
  5
F5
330
2
100
AcDbSymbolTableRecord
100
AcDbLayerTableRecord
  2
Defpoints
 70
     0
 62
     7
  6
Continuous
290
     0
370
    -3
390
F
  0
ENDTAB
  0
TABLE
  2
STYLE
  5
3
330
0
100
AcDbSymbolTable
 70
     1
  0
STYLE
  5
11
330
3
100
AcDbSymbolTableRecord
100
AcDbTextStyleTableRecord
  2
Standard
 70
     0
 40
0.0
 41
1.0
 50
0.0
 71
     0
 42
0.2
  3
txt
  4

  0
ENDTAB
  0
TABLE
  2
VIEW
  5
6
330
0
100
AcDbSymbolTable
 70
     0
  0
ENDTAB
  0
TABLE
  2
UCS
  5
7
330
0
100
AcDbSymbolTable
 70
     0
  0
ENDTAB
  0
TABLE
  2
APPID
  5
9
330
0
100
AcDbSymbolTable
 70
    11
  0
APPID
  5
12
330
9
100
AcDbSymbolTableRecord
100
AcDbRegAppTableRecord
  2
ACAD
 70
     0
  0
APPID
  5
F7
330
9
100
AcDbSymbolTableRecord
100
AcDbRegAppTableRecord
  2
ACAD_DSTYLE_DIMEXT_LENGTH
 70
     0
  0
APPID
  5
F8
330
9
100
AcDbSymbolTableRecord
100
AcDbRegAppTableRecord
  2
ACAD_DSTYLE_DIMEXT_ENABLED
 70
     0
  0
APPID
  5
F9
330
9
100
AcDbSymbolTableRecord
100
AcDbRegAppTableRecord
  2
ACAD_DSTYLE_DIMJOGGED_JOGANGLE_SYMBOL
 70
     0
  0
APPID
  5
FA
330
9
100
AcDbSymbolTableRecord
100
AcDbRegAppTableRecord
  2
ACAD_DSTYLE_DIMARC_LENGTH_SYMBOL
 70
     0
  0
APPID
  5
1B5
330
9
100
AcDbSymbolTableRecord
100
AcDbRegAppTableRecord
  2
ACAD_MLEADERVER
 70
     0
  0
APPID
  5
1C3
330
9
100
AcDbSymbolTableRecord
100
AcDbRegAppTableRecord
  2
ACAD_DSTYLE_DIMJAG
 70
     0
  0
APPID
  5
1C4
330
9
100
AcDbSymbolTableRecord
100
AcDbRegAppTableRecord
  2
ACAD_DSTYLE_DIMTALN
 70
     0
  0
APPID
  5
1EF
330
9
100
AcDbSymbolTableRecord
100
AcDbRegAppTableRecord
  2
AcadAnnotative
 70
     0
  0
APPID
  5
243
330
9
100
AcDbSymbolTableRecord
100
AcDbRegAppTableRecord
  2
ACAD_PSEXT
 70
     0
  0
APPID
  5
B7B
330
9
100
AcDbSymbolTableRecord
100
AcDbRegAppTableRecord
  2
ACAD_EXEMPT_FROM_CAD_STANDARDS
 70
     0
  0
ENDTAB
  0
TABLE
  2
DIMSTYLE
  5
A
330
0
100
AcDbSymbolTable
 70
     4
100
AcDbDimStyleTable
 71
     2
340
F6
340
27
  0
DIMSTYLE
105
27
330
A
100
AcDbSymbolTableRecord
100
AcDbDimStyleTableRecord
  2
Standard
 70
     0
  3
"
 40
3.0
277
     5
340
11
342
4F
  0
DIMSTYLE
105
F6
102
{ACAD_REACTORS
330
B72
330
B73
330
B74
330
B75
330
B76
102
}
330
A
100
AcDbSymbolTableRecord
100
AcDbDimStyleTableRecord
  2
OWP Standard
 70
     0
  3
"
 40
3.0
 41
0.2
 42
0.1
140
0.2
277
     5
340
11
342
4F
1001
ACAD_DSTYLE_DIMJOGGED_JOGANGLE_SYMBOL
1070
   384
1040
0.7853981633974483
1001
ACAD_DSTYLE_DIMJAG
1070
   388
1040
1.5
1001
ACAD_DSTYLE_DIMTALN
1070
   392
1070
     0
1001
ACAD_DSTYLE_DIMEXT_LENGTH
1070
   378
1040
0.18
  0
DIMSTYLE
105
1EE
330
A
100
AcDbSymbolTableRecord
100
AcDbDimStyleTableRecord
  2
Annotative
 70
     0
 40
0.0
340
11
1001
AcadAnnotative
1000
AnnotativeData
1002
{
1070
     1
1070
     1
1002
}
1001
ACAD_DSTYLE_DIMJAG
1070
   388
1040
1.5
1001
ACAD_DSTYLE_DIMTALN
1070
   392
1070
     0
  0
ENDTAB
  0
TABLE
  2
BLOCK_RECORD
  5
1
330
0
100
AcDbSymbolTable
 70
    21
  0
BLOCK_RECORD
  5
1F
102
{ACAD_XDICTIONARY
360
C1B
102
}
330
1
100
AcDbSymbolTableRecord
100
AcDbBlockTableRecord
  2
*Model_Space
340
22
  0
BLOCK_RECORD
  5
1B
330
1
100
AcDbSymbolTableRecord
100
AcDbBlockTableRecord
  2
*Paper_Space
340
1E
  0
BLOCK_RECORD
  5
23
330
1
100
AcDbSymbolTableRecord
100
AcDbBlockTableRecord
  2
*Paper_Space0
340
26
  0
BLOCK_RECORD
  5
4F
330
1
100
AcDbSymbolTableRecord
100
AcDbBlockTableRecord
  2
_ArchTick
340
0
102
{BLKREFS
331
208
331
209
331
215
331
216
331
222
331
223
331
22F
331
230
331
23C
331
23D
331
836
331
837
331
840
331
841
331
84A
331
84B
331
854
331
855
331
85E
331
85F
331
86A
331
86B
331
877
331
878
331
884
331
885
331
891
331
892
331
89E
331
89F
102
}
  0
BLOCK_RECORD
  5
BA
330
1
100
AcDbSymbolTableRecord
100
AcDbBlockTableRecord
  2
_Oblique
340
0
  0
BLOCK_RECORD
  5
1F0
330
1
100
AcDbSymbolTableRecord
100
AcDbBlockTableRecord
  2
A$C18112A55
340
0
1001
ACAD
1000
DesignCenter Data
1002
{
1070
     1
1070
     1
1002
}
  0
BLOCK_RECORD
  5
202
330
1
100
AcDbSymbolTableRecord
100
AcDbBlockTableRecord
  2
*D4
340
0
  0
BLOCK_RECORD
  5
20F
330
1
100
AcDbSymbolTableRecord
100
AcDbBlockTableRecord
  2
*D5
340
0
  0
BLOCK_RECORD
  5
21C
330
1
100
AcDbSymbolTableRecord
100
AcDbBlockTableRecord
  2
*D6
340
0
  0
BLOCK_RECORD
  5
229
330
1
100
AcDbSymbolTableRecord
100
AcDbBlockTableRecord
  2
*D7
340
0
  0
BLOCK_RECORD
  5
236
330
1
100
AcDbSymbolTableRecord
100
AcDbBlockTableRecord
  2
*D8
340
0
  0
BLOCK_RECORD
  5
7F1
330
1
100
AcDbSymbolTableRecord
100
AcDbBlockTableRecord
  2
*D9
340
0
  0
BLOCK_RECORD
  5
7FE
330
1
100
AcDbSymbolTableRecord
100
AcDbBlockTableRecord
  2
*D10
340
0
  0
BLOCK_RECORD
  5
80B
330
1
100
AcDbSymbolTableRecord
100
AcDbBlockTableRecord
  2
*D11
340
0
  0
BLOCK_RECORD
  5
818
330
1
100
AcDbSymbolTableRecord
100
AcDbBlockTableRecord
  2
*D12
340
0
  0
BLOCK_RECORD
  5
825
330
1
100
AcDbSymbolTableRecord
100
AcDbBlockTableRecord
  2
*D13
340
0
  0
BLOCK_RECORD
  5
864
330
1
100
AcDbSymbolTableRecord
100
AcDbBlockTableRecord
  2
*D14
340
0
  0
BLOCK_RECORD
  5
871
330
1
100
AcDbSymbolTableRecord
100
AcDbBlockTableRecord
  2
*D15
340
0
  0
BLOCK_RECORD
  5
87E
330
1
100
AcDbSymbolTableRecord
100
AcDbBlockTableRecord
  2
*D16
340
0
  0
BLOCK_RECORD
  5
88B
330
1
100
AcDbSymbolTableRecord
100
AcDbBlockTableRecord
  2
*D17
340
0
  0
BLOCK_RECORD
  5
898
330
1
100
AcDbSymbolTableRecord
100
AcDbBlockTableRecord
  2
*D18
340
0
  0
BLOCK_RECORD
  5
8A5
330
1
100
AcDbSymbolTableRecord
100
AcDbBlockTableRecord
  2
A$C6E2D559E
340
0
1001
ACAD
1000
DesignCenter Data
1002
{
1070
     1
1070
     1
1002
}
  0
ENDTAB
  0
ENDSEC
  0
SECTION
  2
BLOCKS
  0
BLOCK
  5
20
330
1F
100
AcDbEntity
  8
0
100
AcDbBlockBegin
  2
*Model_Space
 70
     0
 10
0.0
 20
0.0
 30
0.0
  3
*Model_Space
  1

  0
ENDBLK
  5
21
330
1F
100
AcDbEntity
  8
0
100
AcDbBlockEnd
  0
BLOCK
  5
1C
330
1B
100
AcDbEntity
 67
     1
  8
0
100
AcDbBlockBegin
  2
*Paper_Space
 70
     0
 10
0.0
 20
0.0
 30
0.0
  3
*Paper_Space
  1

  0
ENDBLK
  5
1D
330
1B
100
AcDbEntity
 67
     1
  8
0
100
AcDbBlockEnd
  0
BLOCK
  5
24
330
23
100
AcDbEntity
 67
     1
  8
0
100
AcDbBlockBegin
  2
*Paper_Space0
 70
     0
 10
0.0
 20
0.0
 30
0.0
  3
*Paper_Space0
  1

  0
ENDBLK
  5
25
330
23
100
AcDbEntity
 67
     1
  8
0
100
AcDbBlockEnd
  0
BLOCK
  5
51
330
4F
100
AcDbEntity
  8
0
100
AcDbBlockBegin
  2
_ArchTick
 70
     0
 10
0.0
 20
0.0
 30
0.0
  3
_ArchTick
  1

  0
LWPOLYLINE
  5
50
330
4F
100
AcDbEntity
  8
0
 62
     0
100
AcDbPolyline
 90
        2
 70
     0
 43
0.15
 10
-0.5
 20
-0.5
 10
0.5
 20
0.5
  0
ENDBLK
  5
52
330
4F
100
AcDbEntity
  8
0
100
AcDbBlockEnd
  0
BLOCK
  5
BB
330
BA
100
AcDbEntity
  8
0
100
AcDbBlockBegin
  2
_Oblique
 70
     0
 10
0.0
 20
0.0
 30
0.0
  3
_Oblique
  1

  0
LINE
  5
BC
330
BA
100
AcDbEntity
  8
0
  6
ByBlock
 62
     0
370
    -2
100
AcDbLine
 10
-0.5
 20
-0.5
 30
0.0
 11
0.5
 21
0.5
 31
0.0
  0
ENDBLK
  5
BD
330
BA
100
AcDbEntity
  8
0
100
AcDbBlockEnd
  0
BLOCK
  5
1F7
330
1F0
100
AcDbEntity
  8
0
100
AcDbBlockBegin
  2
A$C18112A55
 70
     0
 10
0.0
 20
0.0
 30
0.0
  3
A$C18112A55
  1

  0
3DSOLID
  5
1F1
330
1F0
100
AcDbEntity
  8
0
100
AcDbModelerGeometry
 70
     1
  1
koo jmf n o         
  1
ni ^ *+0;:,4 ^ *+0\^ [ nf ^ LR mnjqoqoqkmnk QK o  
  1
mjqlffffffffffffff fqfffffffffffffffj:rooh n:rono 
  1
=0;& {rn {n {rn {rn |
  1
3*2/ {rn {rn {m {o |
  1
,7:33 {rn {rn {rn {l {rn {n |
  1
9><: {k {j {i {m {rn {h 90-(>-; ,6183: |
  1
2>+:-6>3r>;:,4r>++-6= {rn {g {rn {l lhi o |
  1
9><: {f {no {nn {m {rn {nm 90-(>-; ,6183: |
  1
300/ {rn {nl {nk {l |
  1
+0-*,r,*-9><: {rn kqinhikojlojlnikj mqgmohohkjjimnkmlg rl nqglifhonfghmnomfh:roni n o kgqngfihnmmhgmniil rkiqggijfofhgjgjnok o o n 90-(>-;@) V V V V |
  1
/:-,*=:1+r><>;L036;W6,+0-&r>++-6= {rn {rn {k {l n m m o |
  1
2>+:-6>3r>;:,4r>++-6= {rn {nj {rn {j lhi o |
  1
9><: {ni {nh {ng {m {rn {nf 90-(>-; ,6183: |
  1
300/ {rn {mo {mn {j |
  1
+0-*,r,*-9><: {rn kqinhikojlojlnikj mqljiijgflknnnnlgn rl nqglifhonfghmnomfh:roni n o kiqknmnkjlfmogijkl rkjqngogklkmllinjkk o o n 90-(>-;@) V V V V |
  1
300/ {rn {rn {mm {l |
  1
<0:;8: {rn {nk {nk {ml {mk -:):-,:; {i {rn |
  1
/:-,*=:1+r><>;L036;W6,+0-&r>++-6= {rn {rn {f {j n m l o |
  1
2>+:-6>3r>;:,4r>++-6= {rn {mj {rn {no lhi o |
  1
9><: {mi {mh {mg {m {rn {mf 90-(>-; ,6183: |
  1
300/ {rn {lo {ln {no |
  1
+0-*,r,*-9><: {rn kqinhikojlojlnikgi niqkofffmhmofnhkjg rl nqglifhonfghmnomfh:roni n o rfqglgifjfhnmhjolig nmqgmfgfhfhofjfkfl o o n 90-(>-;@) V V V V |
  1
300/ {rn {rn {ml {j |
  1
<0:;8: {rn {mn {mn {lm {ll -:):-,:; {nn {rn |
  1
<0:;8: {rn {mm {mm {lk {lj 90-(>-; {nl {rn |
  1
<0:;8: {rn {ml {ml {nk {mk 90-(>-; {mo {rn |
  1
:;8: {rn {li {li {ml {lh 90-(>-; |
  1
/:-,*=:1+r><>;L036;W6,+0-&r>++-6= {rn {rn {ni {no n m k o |
  1
2>+:-6>3r>;:,4r>++-6= {rn {lg {rn {nh lhi o |
  1
9><: {lf {ko {kn {m {rn {km 90-(>-; ,6183: |
  1
300/ {rn {kl {kk {nh |
  1
+0-*,r,*-9><: {rn kqinhikojlojlnikgi njqlffolnlkigomfhj rl nqglifhonfghmnomfh:roni n o oqgjmojghohfonmffhg mqnonjlmkhfgkojok o o n 90-(>-;@) V V V V |
  1
300/ {rn {rn {lm {no |
  1
<0:;8: {rn {ln {ln {kj {ki -:):-,:; {ng {rn |
  1
<0:;8: {rn {lm {lm {mn {ll 90-(>-; {lo {rn |
  1
:;8: {rn {kh {kh {lm {kg 90-(>-; |
  1
<0:;8: {rn {lk {lk {mm {lj -:):-,:; {kf {rn |
  1
:;8: {rn {jo {jo {mm {jn 90-(>-; |
  1
):-+:' {rn {mk {jm |
  1
:336/,:r<*-): {rn kqinhikojlojlnikj gqlmgmigoljkjhnffk rl nqglifhonfghmnomfh:roni n o nqimhihgmjonjnhfjh rmqfgfffiklgiljmkng:roni o n V V |
  1
/:-,*=:1+r><>;L036;W6,+0-&r>++-6= {rn {rn {mi {nh n m j o |
  1
2>+:-6>3r>;:,4r>++-6= {rn {jl {rn {mh lhi o |
  1
9><: {jk {jj {ji {m {rn {jh 90-(>-; ,6183: |
  1
300/ {rn {jg {jf {mh |
  1
<01:r,*-9><: {rn kqinhikojlojlnikgi niqffiohflnjnmgflk rl nqglifhonfghmnomfh:roni n o mqmjoijlnlkhjnfhnm rkqnlklgmhlinfhklih:roni o n V V o n mqmjoijlnlkhjnfhnm 90-(>-; V V V V |
  1
300/ {rn {rn {kj {nh |
  1
<0:;8: {rn {kk {kk {io {in -:):-,:; {mg {rn |
  1
<0:;8: {rn {kj {kj {ln {ki 90-(>-; {kl {rn |
  1
:;8: {rn {im {im {kj {il 90-(>-; |
  1
):-+:' {rn {ll {ik |
  1
:336/,:r<*-): {rn kqinhikojlojlnikgi nmqjklojkmjjokghif rl nqglifhonfghmnomfh:roni n o mqlfkjgnnlgjhikmlh rkqlfghhkngffgklimk:roni o n V V |
  1
300/ {rn {ij {lk {ii |
  1
):-+:' {rn {lj {ih |
  1
:336/,:r<*-): {rn kqinhikojlojlnikj iqhmnjmoonlglmhii rl nqglifhonfghmnomfh:roni n o nqkijimfjoklmhllnh rmqifmlnhhmngnjjgmh:roni o n V V |
  1
/061+ {rn iqmkjlnghgoiglkkoh gqlmgmigoljkjhnfml rl |
  1
/:-,*=:1+r><>;L036;W6,+0-&r>++-6= {rn {rn {lf {mh l m i o m g o m nk o |
  1
2>+:-6>3r>;:,4r>++-6= {rn {ig {rn {ko lhi o |
  1
9><: {if {ho {hn {m {rn {hm 90-(>-; ,6183: |
  1
300/ {rn {hl {hk {ko |
  1
+0-*,r,*-9><: {rn kqinhikojlojlnikgi nhqiomhfilomnljlgn rl nqglifhonfghmnomfh:roni n o mqklfffignnnlfnkmk roqiogklgolghhhhhgjg o o n 90-(>-;@) V V V V |
  1
300/ {rn {rn {io {mh |
  1
<0:;8: {rn {jf {jf {hj {hi -:):-,:; {kn {rn |
  1
<0:;8: {rn {io {io {kk {in 90-(>-; {jg {rn |
  1
:;8: {rn {hh {hh {io {hg 90-(>-; |
  1
):-+:' {rn {ki {hf |
  1
:336/,:r<*-): {rn kqinhikojlojlnikgi njqkmioimlnhlkfmn rl nqglifhonfghmnomfh:roni n o mqfjlknhllhjiljmjj rjqkmjllfillkfomoli:roni o n V V |
  1
/061+ {rn hqonmmmniifnogohml nmqjklojkmjjokghif rl |
  1
300/ {rn {rn {go {ii |
  1
9><: {gn {gm {kf {m {rn {gl 90-(>-; ,6183: |
  1
/061+ {rn iqoglmhoolkgjgfhig iqhmnjmoonlglmhjgf rl |
  1
/:-,*=:1+r><>;L036;W6,+0-&r>++-6= {rn {rn {jk {ko n m h o |
  1
2>+:-6>3r>;:,4r>++-6= {rn {gk {rn {jj lhi o |
  1
9><: {gj {gi {gh {m {rn {gg 90-(>-; ,6183: |
  1
300/ {rn {gf {fo {jj |
  1
<01:r,*-9><: {rn kqinhikojlojlnikgi ngqmnmhilinimhnjlk rl nqglifhonfghmnomfh:roni n o mqmjoijlnlkhjnfkmh rkqnlklgmhlinfhlgkk:roni o n V V o n mqmjoijlnlkhjnfkmh 90-(>-; V V V V |
  1
300/ {rn {rn {hj {ko |
  1
<0:;8: {rn {hk {hk {fn {fm -:):-,:; {ji {rn |
  1
<0:;8: {rn {hj {hj {jf {hi 90-(>-; {hl {rn |
  1
:;8: {rn {fl {fl {hj {fk 90-(>-; |
  1
):-+:' {rn {in {fj |
  1
:336/,:r<*-): {rn kqinhikojlojlnikgi niqfihjgghhnoonoon rl nqglifhonfghmnomfh:roni n o mqmjoijlnlkhjnfhnm rkqnlklgmhlinfhklih:roni o n V V |
  1
/061+ {rn hqjhnojhgigofjnhkn njqkmioimlnhlkfmn rl |
  1
<0:;8: {rn {go {go {fi {fh 90-(>-; {ij {rn |
  1
2>+:-6>3r>;:,4r>++-6= {rn {fg {rn {ii lhi o |
  1
9><: {ff {noo {non {m {rn {nom 90-(>-; ,6183: |
  1
<01:r,*-9><: {rn kqinhikojlojlnikj iqoghnfjfmokngnfim rl nqglifhonfghmnomfh:roni n o nqklillnmkjgnkkflm rmqilgkfhifkojlohlg:roni o n V V oqokinlgfikknlgljhlk oqffgfljolofongnfkj nqklillnmkjgnkkflm 90-(>-; V V V V |
  1
/:-,*=:1+r><>;L036;W6,+0-&r>++-6= {rn {rn {if {jj l m i o m g o m nk o |
  1
2>+:-6>3r>;:,4r>++-6= {rn {nol {rn {ho lhi o |
  1
9><: {nok {noj {noi {m {rn {noh 90-(>-; ,6183: |
  1
300/ {rn {nog {nof {ho |
  1
+0-*,r,*-9><: {rn kqinhikojlojlnikgi ngqgofiojkomgfgllg rl nqglifhonfghmnomfh:roni n o mqoogllkmimjnjojik oqinkgilhfonnlgggol o o n 90-(>-;@) V V V V |
  1
300/ {rn {rn {fn {jj |
  1
<0:;8: {rn {fo {fo {nno {nnn -:):-,:; {hn {rn |
  1
<0:;8: {rn {fn {fn {hk {fm 90-(>-; {gf {rn |
  1
:;8: {rn {nnm {nnm {fn {nnl 90-(>-; |
  1
):-+:' {rn {hi {nnk |
  1
:336/,:r<*-): {rn kqinhikojlojlnikgi nhqomkjifgjfmjigig rl nqglifhonfghmnomfh:roni n o mqmjoijlnlkhjnfhnm rkqnlklgmhlinfhklih:roni o n V V |
  1
/061+ {rn iqgigmfliijmglinfh niqfihjgghhnoonoon rl |
  1
<0:;8: {rn {fi {fi {go {fh -:):-,:; {nnj {rn |
  1
:;8: {rn {nni {nni {go {nnh 90-(>-; |
  1
/:-,*=:1+r><>;L036;W6,+0-&r>++-6= {rn {rn {gn {ii n m n o |
  1
/:-,*=:1+r><>;L036;W6,+0-&r>++-6= {rn {nng {rn {gm n n nooooooooo n |
  1
9><: {nnf {nmo {nmn {m {rn {nmm 90-(>-; ,6183: |
  1
300/ {rn {rn {nml {gm |
  1
/3>1:r,*-9><: {rn kqinhikojlojlnikj nkqkfffffflgjhhomh o o o n rnqglifhonfghmnomfh:roni rn o 90-(>-;@) V V V V |
  1
/:-,*=:1+r><>;L036;W6,+0-&r>++-6= {rn {rn {gj {ho n m f o |
  1
2>+:-6>3r>;:,4r>++-6= {rn {nmk {rn {gi lhi o |
  1
9><: {nmj {nmi {nmh {m {rn {nmg 90-(>-; ,6183: |
  1
300/ {rn {nmf {nlo {gi |
  1
+0-*,r,*-9><: {rn kqinhikojlojlnikgi nfqmikgfgkoommlnoh rl nqglifhonfghmnomfh:roni n o mqmjooljgnghknjlon oqiojhmnnhfomlnofjn o o n 90-(>-;@) V V V V |
  1
300/ {rn {rn {nno {ho |
  1
<0:;8: {rn {nof {nof {nln {nlm -:):-,:; {gh {rn |
  1
<0:;8: {rn {nno {nno {fo {nnn 90-(>-; {nog {rn |
  1
:;8: {rn {nll {nll {nno {nlk 90-(>-; |
  1
):-+:' {rn {fm {nlj |
  1
:336/,:r<*-): {rn kqinhikojlojlnikgi ngqngnommhkjonlggh rl nqglifhonfghmnomfh:roni n o mqmjoijlnlkhjnfkil rkqnlklgmhlinfhlfnl:roni o n V V |
  1
/061+ {rn iqgigmfliijmglinfh nhqomkjifgjfmjigig rl |
  1
300/ {rn {nli {fi {nlh |
  1
):-+:' {rn {fh {nlg |
  1
:336/,:r<*-): {rn kqinhikojlojlnikj jqkjmghngmhoolinfk rl nqglifhonfghmnomfh:roni n o nqkoholmfghlonijnm rmqjgkihhiiimfojjg:roni o n V V |
  1
2>+:-6>3r>;:,4r>++-6= {rn {rn {ff {gm lhi o |
  1
/:-,*=:1+r><>;L036;W6,+0-&r>++-6= {rn {nlf {rn {noo n n k o |
  1
9><: {nko {nkn {nkm {m {rn {nkl 90-(>-; ,6183: |
  1
300/ {rn {rn {nkk {noo |
  1
/3>1:r,*-9><: {rn hqinhikojlojlniknj riqnkmmfghjgjokifk:roog o n rjqjnmnfnmkjhjioloi:roni o o o n 90-(>-;@) V V V V |
  1
<0:;8: {rn {nkj {nki {nkh {nkg -:):-,:; {non {rn |
  1
/:-,*=:1+r><>;L036;W6,+0-&r>++-6= {rn {rn {nok {gi n m no o |
  1
2>+:-6>3r>;:,4r>++-6= {rn {nkf {rn {noj lhi o |
  1
9><: {njo {njn {njm {m {rn {njl 90-(>-; ,6183: |
  1
300/ {rn {njk {njj {noj |
  1
+0-*,r,*-9><: {rn kqinhikojlojlnikgi nfqhfgfjinkfkinmf rl nqglifhonfghmnomfh:roni n o mqmmhjolhhokhfhmkf oqhmifkknmfgklglohm o o n 90-(>-;@) V V V V |
  1
300/ {rn {rn {nln {gi |
  1
<0:;8: {rn {nlo {nlo {nji {njh -:):-,:; {noi {rn |
  1
<0:;8: {rn {nln {nln {nof {nlm 90-(>-; {nmf {rn |
  1
:;8: {rn {njg {njg {nln {njf 90-(>-; |
  1
):-+:' {rn {nnn {nio |
  1
:336/,:r<*-): {rn kqinhikojlojlnikgi ngqmkkjokkghjmfngn rl nqglifhonfghmnomfh:roni n o mqmjoijlnlkhjnfkmh rkqnlklgmhlinfhlgkk:roni o n V V |
  1
/061+ {rn iqgigmfliijmgljfkf ngqngnommhkjonlggh rl |
  1
300/ {rn {rn {nin {nlh |
  1
9><: {nim {ii {nnj {m {rn {nil 90-(>-; ,6183: |
  1
/061+ {rn iqomkihljnhgllmfim jqkjmghngmhoolinml rl |
  1
2>+:-6>3r>;:,4r>++-6= {rn {rn {nnf {noo lhi o |
  1
/:-,*=:1+r><>;L036;W6,+0-&r>++-6= {rn {nik {rn {nmo m n l o m mk o |
  1
9><: {nij {nii {nih {m {rn {nig 90-(>-; ,6183: |
  1
300/ {rn {rn {nif {nmo |
  1
/3>1:r,*-9><: {rn nqinhikojlojlniknj riqnkmmfghjgjokifk:roog o rnqglifhonfghmnomfh:roni rn o o ro rn 90-(>-;@) V V V V |
  1
<0:;8: {rn {nho {nhn {nhm {nhl -:):-,:; {nmn {rn |
  1
<0:;8: {rn {nhk {nml {nhn {nhj 90-(>-; {non {rn |
  1
<0:;8: {rn {nml {nhk {nhi {nhh 90-(>-; {non {rn |
  1
<0:;8: {rn {nhg {nhm {nml {nkg 90-(>-; {nhf {rn |
  1
:;8: {rn {ngo {ngn {nml {ngm 90-(>-; |
  1
/:-,*=:1+r><>;L036;W6,+0-&r>++-6= {rn {rn {nmj {noj n m nn o |
  1
2>+:-6>3r>;:,4r>++-6= {rn {ngl {rn {nmi lhi o |
  1
9><: {ngk {ngj {ngi {m {rn {ngh 90-(>-; ,6183: |
  1
300/ {rn {ngg {ngf {nmi |
  1
+0-*,r,*-9><: {rn kqinhikojlojlnikgi moqlllonlgfgiffkgk rl nqglifhonfghmnomfh:roni n o mqmjooljgnghknjlon oqiojhmnnhfomlnofjn o o n 90-(>-;@) V V V V |
  1
300/ {rn {rn {nji {noj |
  1
<0:;8: {rn {njj {njj {nfo {nfn -:):-,:; {nmh {rn |
  1
<0:;8: {rn {nji {nji {nlo {njh 90-(>-; {njk {rn |
  1
:;8: {rn {nfm {nfm {nji {nfl 90-(>-; |
  1
):-+:' {rn {nlm {nfk |
  1
:336/,:r<*-): {rn kqinhikojlojlnikgi ngqhghkingfkhmfml rl nqglifhonfghmnomfh:roni n o mqimmhffnggiknnhhf rkqgngoolfkihiljkom:roni o n V V |
  1
/061+ {rn iqgigmfliijmgljfnl ngqmkkjokkghjmfngn rl |
  1
<0:;8: {rn {nin {nin {nfj {nfi 90-(>-; {nli {rn |
  1
2>+:-6>3r>;:,4r>++-6= {rn {nfh {rn {nlh lhi o |
  1
+0-*,r,*-9><: {rn kqinhikojlojlnikj jqmgmknllglmoingll rl nqglifhonfghmnomfh:roni n o nqllmmlmklgklhofml oqnginkgllikhkijfih o o n 90-(>-;@) V V V V |
  1
2>+:-6>3r>;:,4r>++-6= {rn {rn {nko {nmo lhi o |
  1
2>+:-6>3r>;:,4r>++-6= {rn {nfg {rn {nkn lhi o |
  1
9><: {nff {moo {mon {m {rn {mom 90-(>-; ,6183: |
  1
300/ {rn {rn {mol {nkn |
  1
/3>1:r,*-9><: {rn nqinhikojlojlniknj mgqffffffflgjhhom o rn nqglifhonfghmnomfh:roni o o ro rn 90-(>-;@) V V V V |
  1
<0:;8: {rn {nif {nif {mok {moj -:):-,:; {nkm {rn |
  1
<0:;8: {rn {moi {nkk {moh {mog 90-(>-; {nmn {rn |
  1
<0:;8: {rn {nkk {moi {nkj {nhj -:):-,:; {nmn {rn |
  1
<0:;8: {rn {nkh {mof {nkk {nhl 90-(>-; {nhf {rn |
  1
:;8: {rn {mno {ngo {nkk {mnn 90-(>-; |
  1
<0:;8: {rn {nki {nkj {mnm {mnl 90-(>-; {non {rn |
  1
:;8: {rn {ngo {mnk {nhn {mnj 90-(>-; |
  1
<0:;8: {rn {mni {mol {nki {nhh -:):-,:; {nih {rn |
  1
:;8: {rn {mnh {ngn {nhi {mng 90-(>-; |
  1
<0:;8: {rn {mof {nkh {mol {mnf 90-(>-; {nhf {rn |
  1
300/ {rn {mmo {nhm {mmn |
  1
):-+:' {rn {nhj {mmm |
  1
):-+:' {rn {nkg {mml |
  1
61+<*-):r<*-): {rn 90-(>-; $ :'><+<*- 1*-=, m 0/:1 m 
  1
 oqlijkfjonhhnflonjk m iqgimmmfihmikknjol m 
  1
 hqinhikojlojlnijkg mkqkiflhgmgooonhgk o nqojnhhiifmjgkgnng 
  1
 kqinhikojlojlnkklk mlqlklmgkikojgnjml rnqlhghgmjjjlinkfmh:roni nqkghkligilmknonhj 
  1
 nqinhikojlojlnikog mkqkiflhgmgooonhgk rjqjjnnnjnmlnmjhgmh:ronh nqojnhhiifmjgkgnmh 
  1
 o 
  1
 1*33@,*-9><: 
  1
 1*33@,*-9><: 
  1
 1*33=, 
  1
 1*33=, 
  1
 V V 
  1
 o 
  1
 o 
  1
 o 
  1
 Y n Y o " V V |
  1
/:-,*=:1+r><>;L036;W6,+0-&r>++-6= {rn {rn {njo {nmi n m nm o |
  1
2>+:-6>3r>;:,4r>++-6= {rn {mmk {rn {njn lhi o |
  1
9><: {mmj {mmi {mmh {m {rn {mmg 90-(>-; ,6183: |
  1
300/ {rn {mmf {mlo {njn |
  1
+0-*,r,*-9><: {rn kqinhikojlojlnikgi moqhggloigfiomkmjl rl nqglifhonfghmnomfh:roni n o mqoogllkmimjnjojik oqinkgilhfonnlgggol o o n 90-(>-;@) V V V V |
  1
300/ {rn {rn {nfo {nmi |
  1
<0:;8: {rn {ngf {ngf {mln {mlm -:):-,:; {njm {rn |
  1
<0:;8: {rn {nfo {nfo {njj {nfn 90-(>-; {ngg {rn |
  1
:;8: {rn {mll {mll {nfo {mlk 90-(>-; |
  1
):-+:' {rn {njh {mlj |
  1
:336/,:r<*-): {rn kqinhikojlojlnikgi nfqkoioohihkighjf rl nqglifhonfghmnomfh:roni n o mqglfofnmijjngnfmn rjqmnjlmiokimoioflm:roni o n V V |
  1
/061+ {rn hqmkoklfhnfnhmgmij ngqhghkingfkhmfml rl |
  1
<0:;8: {rn {nfj {nfj {nin {nfi -:):-,:; {mli {rn |
  1
:;8: {rn {mlh {mlh {nin {mlg 90-(>-; |
  1
/:-,*=:1+r><>;L036;W6,+0-&r>++-6= {rn {rn {nim {nlh n m ko o |
  1
/:-,*=:1+r><>;L036;W6,+0-&r>++-6= {rn {rn {nij {nkn n n m o |
  1
2>+:-6>3r>;:,4r>++-6= {rn {mlf {rn {nii lhi o |
  1
9><: {mko {rn {mkn {m {rn {mkm -:):-,:; ,6183: |
  1
300/ {rn {rn {mkl {nii |
  1
/3>1:r,*-9><: {rn hqinhikojlojlnijjh mgqffffffflgjhhonm o nqglifhonfghmnomfh:roni n ro o o n 90-(>-;@) V V V V |
  1
<0:;8: {rn {nhi {mkk {nhg {mnf -:):-,:; {nih {rn |
  1
<0:;8: {rn {mok {mok {nif {moj 90-(>-; {mkj {rn |
  1
:;8: {rn {mki {mki {nif {mkh 90-(>-; |
  1
<0:;8: {rn {nhn {nho {mkg {mkf -:):-,:; {nmn {rn |
  1
<0:;8: {rn {mjo {mjn {nho {mog -:):-,:; {mkn {rn |
  1
:;8: {rn {mno {mjm {nho {mjl 90-(>-; |
  1
<0:;8: {rn {nhm {nhg {mjo {mjk 90-(>-; {nhf {rn |
  1
):-+:' {rn {mog {mjj |
  1
61+<*-):r<*-): {rn 90-(>-; $ :'><+<*- 1*-=, m 0/:1 m 
  1
 oqlijkfjonhhnflokfg m iqgimmmfihmikknlin m 
  1
 hqinhikojlojlnijkg mkqkiflhgmgooonhgk ri nqojnhhiifmjgkgnng 
  1
 hqinhikojlojlnijl mlqlklmgkikojgnjl rmqffffffffffffhfln nqkghkligilmknonof 
  1
 hqinhikojlojlnijkg mkqkiflhgmgooonhgk o nqojnhhiifmjgkgnmk 
  1
 o 
  1
 1*33@,*-9><: 
  1
 1*33@,*-9><: 
  1
 1*33=, 
  1
 1*33=, 
  1
 V V 
  1
 o 
  1
 o 
  1
 o 
  1
 Y n Y o " V V |
  1
<0:;8: {rn {mkg {mji {nhk {mnl -:):-,:; {mon {rn |
  1
:;8: {rn {mnk {mnh {mnm {mjh 90-(>-; |
  1
):-+:' {rn {mnl {mjg |
  1
,+->687+r<*-): {rn hqinhikojlojlniknj riqnkmmfghjgjokifk:roog o jqjnmnfnmkjhjioloi:roni n o V V |
  1
<0:;8: {rn {mkk {nhi {mji {mjf 90-(>-; {nih {rn |
  1
):-+:' {rn {mnl {mio |
  1
,+->687+r<*-): {rn nqinhikojlojlniknj mgqffffffflgjhhom o rnqglifhonfghmnomfh:roni rn o V V |
  1
:;8: {rn {ngn {min {mol {mim 90-(>-; |
  1
300/ {rn {rn {mil {mmn |
  1
9><: {mik {mij {nhf {m {rn {mii 90-(>-; ,6183: |
  1
/061+ {rn hqinhikojlojlnijkg mkqkiflhgmgooonhgk o |
  1
/061+ {rn nqinhikojlojlnikog mkqkiflhgmgooonhgk rjqjjnnnjnmlnmjhgmh:ronh |
  1
/:-,*=:1+r><>;L036;W6,+0-&r>++-6= {rn {rn {ngk {njn n m nl o |
  1
2>+:-6>3r>;:,4r>++-6= {rn {mih {rn {ngj lhi o |
  1
9><: {mig {mif {mho {m {rn {mhn 90-(>-; ,6183: |
  1
300/ {rn {mhm {mhl {ngj |
  1
<01:r,*-9><: {rn kqinhikojlojlnikgi mnqlgjnkgigmijnojl rl nqglifhonfghmnomfh:roni n o mqmjoijlnlkhjnflji rkqnlklgmhlinfhlhni:roni o n V V o n mqmjoijlnlkhjnflji 90-(>-; V V V V |
  1
300/ {rn {rn {mln {njn |
  1
<0:;8: {rn {mlo {mlo {mhk {mhj -:):-,:; {ngi {rn |
  1
<0:;8: {rn {mln {mln {ngf {mlm 90-(>-; {mmf {rn |
  1
:;8: {rn {mhi {mhi {mln {mhh 90-(>-; |
  1
):-+:' {rn {nfn {mhg |
  1
:336/,:r<*-): {rn kqinhikojlojlnikgi moqnfnfokimkmljook rl nqglifhonfghmnomfh:roni n o mqglfofnmijjngnfmn rjqmnjlmiokimoioflm:roni o n V V |
  1
/061+ {rn hqkjihlnhfiokfgkoh nfqkoioohihkighjf rl |
  1
300/ {rn {mhf {nfj {mgo |
  1
):-+:' {rn {nfi {mgn |
  1
:336/,:r<*-): {rn kqinhikojlojlnikj jqnomhlggolmoliohm rl nqglifhonfghmnomfh:roni n o nqlgogfhofnijghnhn rmqjliiiigokghhiojl:roni o n V V |
  1
/:-,*=:1+r><>;L036;W6,+0-&r>++-6= {rn {rn {nff {nii m n n o m mm o |
  1
2>+:-6>3r>;:,4r>++-6= {rn {mgm {rn {moo lhi o |
  1
300/ {rn {rn {mjo {moo |
  1
/3>1:r,*-9><: {rn kqinhikojlojlnikj nkqkfffffflgjhhomh ri o o n rnqglifhonfghmnomfh:roni rn o 90-(>-;@) V V V V |
  1
<0:;8: {rn {mji {mkg {mjn {mgl 90-(>-; {mon {rn |
  1
<0:;8: {rn {mol {mni {mgk {mgj 90-(>-; {nih {rn |
  1
300/ {rn {rn {mok {mij |
  1
):-+:' {rn {moj {mgi |
  1
:336/,:r<*-): {rn kqinhikojlojlnikj riqnkmmfggnkonjgkjm:roog rl nqglifhonfghmnomfh:roni n ro nqoooooooooooooonl rnqglifhonfghmnolnf:roni o n V V |
  1
<0:;8: {rn {mkl {mnm {moi {mkf 90-(>-; {mon {rn |
  1
:;8: {rn {mnk {mjm {mkg {mgh 90-(>-; |
  1
<0:;8: {rn {mgk {moh {mof {mjk -:):-,:; {mkn {rn |
  1
<0:;8: {rn {moh {mgk {mkl {mgl -:):-,:; {mkn {rn |
  1
):-+:' {rn {mkf {mgg |
  1
,+->687+r<*-): {rn hqinhikojlojlniknj riqnkmmfghjgjokifk:roog ri jqjnmnfnmkjhjioloi:roni n o V V |
  1
:;8: {rn {min {mno {mjo {mgf 90-(>-; |
  1
/061+ {rn hqinhikojlojlnijkg mkqkiflhgmgooonhgk ri |
  1
<0:;8: {rn {mnm {mkl {mni {mjf -:):-,:; {mon {rn |
  1
,+->687+r<*-): {rn hqinhikojlojlnijjh mgqffffffflgjhhonm o rn nqglifhonfghmnomfh:roni o V V |
  1
/061+ {rn hqinhikojlojlnijjh mgqffffffflgjhhonm o |
  1
:;8: {rn {mnh {mfo {mni {mfn 90-(>-; |
  1
/061+ {rn nqinhikojlojlniknj mgqffffffflgjhhom o |
  1
):-+:' {rn {mjk {mfm |
  1
61+<*-):r<*-): {rn 90-(>-; $ :'><+<*- 1*-=, m 0/:1 m 
  1
 oqlijkfjonhhnflonfl m iqgimmmfihmikknkj m 
  1
 nqinhikojlojlnikog mkqkiflhgmgooonhgk rjqjjnnnjnmlnmjhgmh:ronh nqojnhhiifmjgkgnmh 
  1
 nqinhikojlojlnikog mlqlklmgkikojgnjll rlqoooooooooooonffg nqkghkligilmknomnl 
  1
 nqinhikojlojlnikog mkqkiflhgmgooonhgk ri nqojnhhiifmjgkgnng 
  1
 o 
  1
 1*33@,*-9><: 
  1
 1*33@,*-9><: 
  1
 1*33=, 
  1
 1*33=, 
  1
 V V 
  1
 o 
  1
 o 
  1
 o 
  1
 Y n Y o " V V |
  1
<0:;8: {rn {mil {mil {mfl {mfk 90-(>-; {mmo {rn |
  1
2>+:-6>3r>;:,4r>++-6= {rn {mfj {rn {mmn lhi o |
  1
9><: {mfi {mfh {mfg {m {rn {mff 90-(>-; ,6183: |
  1
<01:r,*-9><: {rn kqinhikojlojlnikgi mkqnogogkjngogjfil rl nqglifhonfghmnomfh:roni n o lqjimokomikmhklhil riqjkllingnmnniknok:roni o n V V oqgglmilijkhhgnighn oqkigghiijlkkhmhoh lqjimokomikmhklhil 90-(>-; V V V V |
  1
/:-,*=:1+r><>;L036;W6,+0-&r>++-6= {rn {rn {mmj {ngj l m i o m g o m nk o |
  1
2>+:-6>3r>;:,4r>++-6= {rn {loo {rn {mmi lhi o |
  1
9><: {lon {lom {lol {m {rn {lok 90-(>-; ,6183: |
  1
300/ {rn {loj {loi {mmi |
  1
+0-*,r,*-9><: {rn kqinhikojlojlnikgi mnqfgfhgghfkhohnlg rl nqglifhonfghmnomfh:roni n o mqkmgnnomgiojjkhnn roqjffhjlhiiighhfnig o o n 90-(>-;@) V V V V |
  1
300/ {rn {rn {mhk {ngj |
  1
<0:;8: {rn {mhl {mhl {loh {log -:):-,:; {mmh {rn |
  1
<0:;8: {rn {mhk {mhk {mlo {mhj 90-(>-; {mhm {rn |
  1
:;8: {rn {lof {lof {mhk {lno 90-(>-; |
  1
):-+:' {rn {mlm {lnn |
  1
:336/,:r<*-): {rn kqinhikojlojlnikgi moqgnokjokoknfllin rl nqglifhonfghmnomfh:roni n o mqimmhffnggiknnhhf rkqgngoolfkihiljkom:roni o n V V |
  1
/061+ {rn hqkjihlnhfiokfgkoh moqnfnfokimkmljook rl |
  1
300/ {rn {rn {lnm {mgo |
  1
9><: {lnl {nlh {mli {m {rn {lnk 90-(>-; ,6183: |
  1
/061+ {rn jqffgjlhimmnfolimn jqnomhlggolmolioon rl |
  1
/:-,*=:1+r><>;L036;W6,+0-&r>++-6= {rn {rn {mko {moo n n nooooooooo m |
  1
:;8: {rn {mjm {mfo {mkl {lnj 90-(>-; |
  1
<0:;8: {rn {mjn {mjo {mkk {mgj -:):-,:; {mkn {rn |
  1
:;8: {rn {mfo {min {mkk {lni 90-(>-; |
  1
/061+ {rn jqinhikojlojlnikj riqnkmmfghjgjokifk:roog rl |
  1
,+->687+r<*-): {rn hqinhikojlojlnijjh mgqffffffflgjhhonm o o ro rn V V |
  1
/061+ {rn hqinhikojlojlnijjh mgqffffffflgjhhonm ri |
  1
61+<*-):r<*-): {rn 90-(>-; $ :'><+<*- 1*-=, m 0/:1 m 
  1
 oqlijkfjonhhnflonfg m iqgimmmfihmikknjfm m 
  1
 nqinhikojlojlnikog mkqkiflhgmgooonhgk ri nqojnhhiifmjgkgnmm 
  1
 kqinhikojlojlngkmm mlqlklmgkikojgnjml ri nqkghkligilmknongm 
  1
 hqinhikojlojlnijkg mkqkiflhgmgooonhgk ri nqojnhhiifmjgkgnnl 
  1
 o 
  1
 1*33@,*-9><: 
  1
 1*33@,*-9><: 
  1
 1*33=, 
  1
 1*33=, 
  1
 V V 
  1
 o 
  1
 o 
  1
 o 
  1
 Y n Y o " V V |
  1
):-+:' {rn {mjf {lnh |
  1
,+->687+r<*-): {rn nqinhikojlojlniknj mgqffffffflgjhhom o o ro rn V V |
  1
/061+ {rn nqinhikojlojlnikog mkqkiflhgmgooonhgk ri |
  1
<0:;8: {rn {mfl {mfl {mil {mfk -:):-,:; {lng {rn |
  1
:;8: {rn {lnf {lnf {mil {lmo 90-(>-; |
  1
/:-,*=:1+r><>;L036;W6,+0-&r>++-6= {rn {rn {mik {mmn n m mo o |
  1
2>+:-6>3r>;:,4r>++-6= {rn {lmn {rn {mij lhi o |
  1
9><: {lmm {lml {lmk {m {rn {lmj 90-(>-; ,6183: |
  1
300/ {rn {mkj {lmi {mij |
  1
<01:r,*-9><: {rn kqinhikojlojlnikj oqjfofokhfkonkojnoj rl nqglifhonfghmnomfh:roni n o nqoijmmloilmokgmjg rnqfjihglommofhjfmg:roni o n V V oqnofhnnfhjjmmkmjij oqfflfilkmnohogffhk nqoijmmloilmokgmjg 90-(>-; V V V V |
  1
/:-,*=:1+r><>;L036;W6,+0-&r>++-6= {rn {rn {mig {mmi n m nj o |
  1
2>+:-6>3r>;:,4r>++-6= {rn {lmh {rn {mif lhi o |
  1
9><: {lmg {lmf {llo {m {rn {lln 90-(>-; ,6183: |
  1
300/ {rn {llm {lll {mif |
  1
<01:r,*-9><: {rn kqinhikojlojlnikgi mmqimfgihinlfknjlg rl nqglifhonfghmnomfh:roni n o mqlhmmkmmjnhnglijm rkqljhhlglmojjljogk:roni o n V V oqgglmilijkhhgngnol oqkigghiijlkkhmkhii mqlhmmkmmjnhnglijm 90-(>-; V V V V |
  1
300/ {rn {rn {loh {mmi |
  1
<0:;8: {rn {loi {loi {llk {llj -:):-,:; {mho {rn |
  1
<0:;8: {rn {loh {loh {mhl {log 90-(>-; {loj {rn |
  1
:;8: {rn {lli {lli {loh {llh 90-(>-; |
  1
):-+:' {rn {mhj {llg |
  1
:336/,:r<*-): {rn kqinhikojlojlnikgi mnqljlkohgnnlflkn rl nqglifhonfghmnomfh:roni n o mqmjoijlnlkhjnflfm rkqnlklgmhlinfhlhg:roni o n V V |
  1
/061+ {rn hqmkoklfhnfnhmgmij moqgnokjokoknfllin rl |
  1
<0:;8: {rn {lnm {lnm {llf {lko 90-(>-; {mhf {rn |
  1
2>+:-6>3r>;:,4r>++-6= {rn {lkn {rn {mgo lhi o |
  1
<01:r,*-9><: {rn kqinhikojlojlnikj jqohhhlggolmoliogi rl nqglifhonfghmnomfh:roni n o nqlgogfhofnijghnhn rmqjliiiigokghhiojl:roni o n V V o n nqlgogfhofnijghnhn 90-(>-; V V V V |
  1
,+->687+r<*-): {rn hqinhikojlojlnijjh mgqffffffflgjhhonm ri rn nqglifhonfghmnomfh:roni o V V |
  1
,+->687+r<*-): {rn nqinhikojlojlniknj mgqffffffflgjhhom ri rnqglifhonfghmnomfh:roni rn o V V |
  1
/061+ {rn nqinhikojlojlniknj mgqffffffflgjhhom ri |
  1
300/ {rn {lkm {mfl {lkl |
  1
):-+:' {rn {mfk {lkk |
  1
:336/,:r<*-): {rn kqinhikojlojlnikgi mlqjkhhmlijkkmjknn rl nqglifhonfghmnomfh:roni n o mqjoiklfginohnmjhl rkqiokmjjlmfihklhhk:roni o n V V |
  1
/:-,*=:1+r><>;L036;W6,+0-&r>++-6= {rn {rn {mfi {mij n m mj o |
  1
2>+:-6>3r>;:,4r>++-6= {rn {lkj {rn {mfh lhi o |
  1
9><: {lki {lkh {lkg {m {rn {lkf 90-(>-; ,6183: |
  1
300/ {rn {ljo {ljn {mfh |
  1
<01:r,*-9><: {rn kqinhikojlojlnikj nqnfllfkokloknmiim rl nqglifhonfghmnomfh:roni n o nqnjmmigijkmkkmjmg rmqnniiglnhghihohgi:roni o n V V oqgglmilijkhhgnllim oqkigghiijlkkhllign nqnjmmigijkmkkmjmg 90-(>-; V V V V |
  1
<0:;8: {rn {lmi {lmi {ljm {ljl -:):-,:; {mfg {rn |
  1
/:-,*=:1+r><>;L036;W6,+0-&r>++-6= {rn {rn {lon {mif n m ni o |
  1
2>+:-6>3r>;:,4r>++-6= {rn {ljk {rn {lom lhi o |
  1
9><: {ljj {lkl {lji {m {rn {ljh 90-(>-; ,6183: |
  1
300/ {rn {ljg {ljf {lom |
  1
<01:r,*-9><: {rn kqinhikojlojlnikgi mmqhmkfihhollmgfhj rl nqglifhonfghmnomfh:roni n o mqjoiklfgihhjkmkmn rkqiokmjjlknfjogmnn:roni o n V V o n mqjoiklfgihhjkmkmn 90-(>-; V V V V |
  1
300/ {rn {rn {llk {mif |
  1
<0:;8: {rn {lll {lll {lio {lin -:):-,:; {lol {rn |
  1
<0:;8: {rn {llk {llk {loi {llj 90-(>-; {llm {rn |
  1
:;8: {rn {lim {lim {llk {lil 90-(>-; |
  1
):-+:' {rn {log {lik |
  1
:336/,:r<*-): {rn kqinhikojlojlnikgi mnqkniggfjjlfogh rl nqglifhonfghmnomfh:roni n o mqmjoijlnlkhjnflji rkqnlklgmhlinfhlhni:roni o n V V |
  1
/061+ {rn iqgigmfliijmgljghg mnqljlkohgnnlflkn rl |
  1
<0:;8: {rn {llf {llf {lnm {lko -:):-,:; {lij {rn |
  1
:;8: {rn {lii {lii {lnm {lih 90-(>-; |
  1
/:-,*=:1+r><>;L036;W6,+0-&r>++-6= {rn {rn {lnl {mgo n m lf o |
  1
300/ {rn {rn {lig {lkl |
  1
9><: {lif {mmn {lng {m {rn {lho 90-(>-; ,6183: |
  1
/061+ {rn hqnmkogolfniomfojg mlqjkhhmlijkkmjknn rl |
  1
/:-,*=:1+r><>;L036;W6,+0-&r>++-6= {rn {rn {lmm {mfh n m mi o |
  1
2>+:-6>3r>;:,4r>++-6= {rn {lhn {rn {lml lhi o |
  1
9><: {lhm {lhl {lhk {m {rn {lhj 90-(>-; ,6183: |
  1
300/ {rn {lhi {lhh {lml |
  1
<01:r,*-9><: {rn kqinhikojlojlnikj nqmmooolnmfmhfnilj rl nqglifhonfghmnomfh:roni n o nqnhkofnngmohggjhj rmqnjihhojnmoiooohi:roni o n V V o n nqnhkofnngmohggjhj 90-(>-; V V V V |
  1
300/ {rn {rn {ljm {mfh |
  1
<0:;8: {rn {ljn {ljn {lhg {lhf -:):-,:; {lmk {rn |
  1
<0:;8: {rn {ljm {ljm {lmi {ljl 90-(>-; {ljo {rn |
  1
:;8: {rn {lgo {lgo {ljm {lgn 90-(>-; |
  1
/:-,*=:1+r><>;L036;W6,+0-&r>++-6= {rn {rn {lmg {lom m m nh o m nf o |
  1
2>+:-6>3r>;:,4r>++-6= {rn {lgm {rn {lmf lhi o |
  1
300/ {rn {lgl {lgk {lmf |
  1
+0-*,r,*-9><: {rn kqinhikojlojlnikgi mlqnmkknkhjikihmff rl nqglifhonfghmnomfh:roni n o mqllgilnglfhngoonl oqknnligniomgnffhfn o o n 90-(>-;@) V V V V |
  1
300/ {rn {rn {lio {lom |
  1
<0:;8: {rn {ljf {ljf {lgj {lgi -:):-,:; {llo {rn |
  1
<0:;8: {rn {lio {lio {lll {lin 90-(>-; {ljg {rn |
  1
:;8: {rn {lgh {lgh {lio {lgg 90-(>-; |
  1
):-+:' {rn {llj {lgf |
  1
:336/,:r<*-): {rn kqinhikojlojlnikgi mmqjjgimflfjjgmhnh rl nqglifhonfghmnomfh:roni n o mqmlgokkiljigmkggl rkqnnnmmnmffnjinfjm:roni o n V V |
  1
/061+ {rn iqgigmfliijmgljgkm mnqkniggfjjlfogh rl |
  1
300/ {rn {lfo {llf {lfn |
  1
):-+:' {rn {lko {lfm |
  1
:336/,:r<*-): {rn kqinhikojlojlnikj jqojmhlggolmolin rl nqglifhonfghmnomfh:roni n o nqlgogfhofnijghnhn rmqjliiiigokghhiojl:roni o n V V |
  1
<0:;8: {rn {lig {lig {lgk {lfl 90-(>-; {lkm {rn |
  1
2>+:-6>3r>;:,4r>++-6= {rn {lfk {rn {lkl lhi o |
  1
<01:r,*-9><: {rn kqinhikojlojlnikgi mlqjmlginhfijonmnm rl nqglifhonfghmnomfh:roni n o mqjoiklfgikknmhjnj rkqiokmjjlljgnmiomh:roni o n V V o n mqjoiklfgikknmhjnj 90-(>-; V V V V |
  1
/:-,*=:1+r><>;L036;W6,+0-&r>++-6= {rn {rn {lki {lml n m mh o |
  1
2>+:-6>3r>;:,4r>++-6= {rn {lfj {rn {lkh lhi o |
  1
9><: {lfi {lfh {lfg {m {rn {lff 90-(>-; ,6183: |
  1
300/ {rn {koo {kon {lkh |
  1
+0-*,r,*-9><: {rn kqinhikojlojlnikj nqijmjmhngmhjkjokn rl nqglifhonfghmnomfh:roni n o oqffminjikjligonjhm oqkjjmljnffllhimmjg o o n 90-(>-;@) V V V V |
  1
300/ {rn {rn {lhg {lml |
  1
<0:;8: {rn {lhh {lhh {kom {kol -:):-,:; {lkg {rn |
  1
<0:;8: {rn {lhg {lhg {ljn {lhf 90-(>-; {lhi {rn |
  1
:;8: {rn {kok {kok {lhg {koj 90-(>-; |
  1
):-+:' {rn {ljl {koi |
  1
:336/,:r<*-): {rn kqinhikojlojlnikj nqngngofikfkjnogmi rl nqglifhonfghmnomfh:roni n o nqnlokkinmikofikgn rmqohijfjgkjkhknkfj:roni o n V V |
  1
/:-,*=:1+r><>;L036;W6,+0-&r>++-6= {rn {rn {ljj {lmf n m ng o |
  1
300/ {rn {rn {lgj {lmf |
  1
<0:;8: {rn {lgk {lgk {lig {lfl -:):-,:; {lji {rn |
  1
<0:;8: {rn {lgj {lgj {ljf {lgi 90-(>-; {lgl {rn |
  1
:;8: {rn {koh {koh {lgj {kog 90-(>-; |
  1
):-+:' {rn {lin {kof |
  1
:336/,:r<*-): {rn kqinhikojlojlnikgi mmqhonnojglmloolik rl nqglifhonfghmnomfh:roni n o mqjoiklfgihhjkmkmn rkqiokmjjlknfjogmnn:roni o n V V |
  1
/061+ {rn iqgjjigjniimnknlif mmqjjgimflfjjgmhnh rl |
  1
300/ {rn {rn {kno {lfn |
  1
9><: {knn {mgo {lij {m {rn {knm 90-(>-; ,6183: |
  1
/061+ {rn jqffgjlhimmnfolimn jqojmhlggolmoliomf rl |
  1
:;8: {rn {knl {knl {lig {knk 90-(>-; |
  1
/:-,*=:1+r><>;L036;W6,+0-&r>++-6= {rn {rn {lif {lkl m m nh o m nf o |
  1
/:-,*=:1+r><>;L036;W6,+0-&r>++-6= {rn {rn {lhm {lkh n m mg o |
  1
2>+:-6>3r>;:,4r>++-6= {rn {knj {rn {lhl lhi o |
  1
9><: {kni {knh {kng {m {rn {knf 90-(>-; ,6183: |
  1
300/ {rn {kmo {kmn {lhl |
  1
<01:r,*-9><: {rn kqinhikojlojlnikj mqoiihjfojlmninlnl rl nqglifhonfghmnomfh:roni n o nqmnnknlffoikfmfkk rmqmmjllnlffnlikhon:roni o n V V o n nqmnnknlffoikfmfkk 90-(>-; V V V V |
  1
300/ {rn {rn {kom {lkh |
  1
<0:;8: {rn {kon {kon {kmm {kml -:):-,:; {lhk {rn |
  1
<0:;8: {rn {kom {kom {lhh {kol 90-(>-; {koo {rn |
  1
:;8: {rn {kmk {kmk {kom {kmj 90-(>-; |
  1
):-+:' {rn {lhf {kmi |
  1
:336/,:r<*-): {rn kqinhikojlojlnikj nqmokfhgkliilnkkmh rl nqglifhonfghmnomfh:roni n o nqnhkofnngmohggjhj rmqnjihhojnmoiooohi:roni o n V V |
  1
/061+ {rn jqhkgogiijifknmflm nqngngofikfkjnogmi rl |
  1
):-+:' {rn {lgi {kmh |
  1
:336/,:r<*-): {rn kqinhikojlojlnikgi mmqhkggmfjhkljhjf rl nqglifhonfghmnomfh:roni n o mqjoiklfgihhjkmkmn rkqiokmjjlknfjogmnn:roni o n V V |
  1
/061+ {rn hqnmkogolfgmgjgfoh mmqhonnojglmloolik rl |
  1
<0:;8: {rn {kno {kno {kmg {kmf 90-(>-; {lfo {rn |
  1
2>+:-6>3r>;:,4r>++-6= {rn {klo {rn {lfn lhi o |
  1
<01:r,*-9><: {rn kqinhikojlojlnikj jqoknnjkkofinlkmik rl nqglifhonfghmnomfh:roni n o nqkomhnfinfkfllmng rmqjhihjknlgnhojlkk:roni o n V V roqgglmilijkhhgnllim oqkigghiijlkkhllign nqkomhnfinfkfllmng 90-(>-; V V V V |
  1
):-+:' {rn {lfl {kln |
  1
:336/,:r<*-): {rn kqinhikojlojlnikgi mlqkfffffflgjhhoof rl nqglifhonfghmnomfh:roni n o mqjoiklfgihhjkmkjh rkqiokmjjlknfjogmg:roni o n V V |
  1
/:-,*=:1+r><>;L036;W6,+0-&r>++-6= {rn {rn {lfi {lhl n m mf o |
  1
2>+:-6>3r>;:,4r>++-6= {rn {klm {rn {lfh lhi o |
  1
9><: {kll {klk {klj {m {rn {kli 90-(>-; ,6183: |
  1
300/ {rn {klh {klg {lfh |
  1
<01:r,*-9><: {rn kqinhikojlojlnikj mqofllignlfkjkomgh rl nqglifhonfghmnomfh:roni n o nqngfjfnkimgnkigfh rmqngjmkkoijgkljkn:roni o n V V roqgglmilijkhhgnllim oqkigghiijlkkhllign nqngfjfnkimgnkigfh 90-(>-; V V V V |
  1
300/ {rn {rn {kmm {lhl |
  1
<0:;8: {rn {kmn {kmn {klf {kko -:):-,:; {lfg {rn |
  1
<0:;8: {rn {kmm {kmm {kon {kml 90-(>-; {kmo {rn |
  1
:;8: {rn {kkn {kkn {kmm {kkm 90-(>-; |
  1
):-+:' {rn {kol {kkl |
  1
:336/,:r<*-): {rn kqinhikojlojlnikj nqmljomhgmnfmighhl rl nqglifhonfghmnomfh:roni n o nqnhkofnngmohggjhj rmqnjihhojnmoiooohi:roni o n V V |
  1
/061+ {rn jqhfnhlnhnminojomi nqmokfhgkliilnkkmh rl |
  1
/061+ {rn hqnmkogolfgmgjgfoh mmqhkggmfjhkljhjf rl |
  1
<0:;8: {rn {kmg {kmg {kno {kmf -:):-,:; {kkk {rn |
  1
:;8: {rn {kkj {kkj {kno {kki 90-(>-; |
  1
/:-,*=:1+r><>;L036;W6,+0-&r>++-6= {rn {rn {knn {lfn n m lg o |
  1
/061+ {rn hqnmkogolfgmgjgfkm mlqkfffffflgjhhoof rl |
  1
/:-,*=:1+r><>;L036;W6,+0-&r>++-6= {rn {rn {kni {lfh n m lo o |
  1
2>+:-6>3r>;:,4r>++-6= {rn {kkh {rn {knh lhi o |
  1
9><: {kkg {kkf {kjo {m {rn {kjn 90-(>-; ,6183: |
  1
300/ {rn {kjm {kjl {knh |
  1
<01:r,*-9><: {rn kqinhikojlojlnikj mqnmffjmjllokkmnog rl nqglifhonfghmnomfh:roni n o nqnihhigflkfgoogj rmqnkjnjihlmjjoinm:roni o n V V o n nqnihhigflkfgoogj 90-(>-; V V V V |
  1
300/ {rn {rn {klf {lfh |
  1
<0:;8: {rn {klg {klg {kjk {kjj -:):-,:; {kng {rn |
  1
<0:;8: {rn {klf {klf {kmn {kko 90-(>-; {klh {rn |
  1
:;8: {rn {kji {kji {klf {kjh 90-(>-; |
  1
):-+:' {rn {kml {kjg |
  1
:336/,:r<*-): {rn kqinhikojlojlnikj mqojnhlkliojigknhj rl nqglifhonfghmnomfh:roni n o nqmnnknlffoikfmfkk rmqmmjllnlffnlikhon:roni o n V V |
  1
/061+ {rn jqhfnhlnhnminojomi nqmljomhgmnfmighhl rl |
  1
300/ {rn {kjf {kmg {kio |
  1
):-+:' {rn {kmf {kin |
  1
:336/,:r<*-): {rn kqinhikojlojlnikj jqomfjhooniomlmkff rl nqglifhonfghmnomfh:roni n o nqkmkjkmnkhlmhfmij rmqinigknkhnkilkilj:roni o n V V |
  1
/:-,*=:1+r><>;L036;W6,+0-&r>++-6= {rn {rn {kll {knh n m ln o |
  1
2>+:-6>3r>;:,4r>++-6= {rn {kim {rn {klk lhi o |
  1
9><: {kil {kik {kij {m {rn {kii 90-(>-; ,6183: |
  1
300/ {rn {kih {kig {klk |
  1
+0-*,r,*-9><: {rn kqinhikojlojlnikj mqllkimhnnlokihgjj rl nqglifhonfghmnomfh:roni n o nqnnfnokmgnhjgkiom oqnginkgllikhkijfih o o n 90-(>-;@) V V V V |
  1
300/ {rn {rn {kjk {knh |
  1
<0:;8: {rn {kjl {kjl {kif {kho -:):-,:; {klj {rn |
  1
<0:;8: {rn {kjk {kjk {klg {kjj 90-(>-; {kjm {rn |
  1
:;8: {rn {khn {khn {kjk {khm 90-(>-; |
  1
):-+:' {rn {kko {khl |
  1
:336/,:r<*-): {rn kqinhikojlojlnikj mqognhglhkjgilgjmm rl nqglifhonfghmnomfh:roni n o nqmnnknlffoikfmfkk rmqmmjllnlffnlikhon:roni o n V V |
  1
/061+ {rn jqgmfojkjmnngoflfj mqojnhlkliojigknhj rl |
  1
300/ {rn {rn {khk {kio |
  1
9><: {khj {lfn {kkk {m {rn {khi 90-(>-; ,6183: |
  1
/061+ {rn iqokmngmihhgjfjhnj jqomfjhooniomlmkmg rl |
  1
/:-,*=:1+r><>;L036;W6,+0-&r>++-6= {rn {rn {kkg {klk n m lm o |
  1
2>+:-6>3r>;:,4r>++-6= {rn {khh {rn {kkf lhi o |
  1
9><: {khg {khf {kgo {m {rn {kgn 90-(>-; ,6183: |
  1
300/ {rn {kgm {kgl {kkf |
  1
<01:r,*-9><: {rn kqinhikojlojlnikj lqlnimgfkogglnkjni rl nqglifhonfghmnomfh:roni n o nqmiihjfohikohgnji rmqlmiffgihmlmojllm:roni o n V V oqogfkjoonlfhlgglfig oqffjffnlnmhnlnjknn nqmiihjfohikohgnji 90-(>-; V V V V |
  1
300/ {rn {rn {kif {klk |
  1
<0:;8: {rn {kig {kig {kgk {kgj -:):-,:; {kjo {rn |
  1
<0:;8: {rn {kif {kif {kjl {kho 90-(>-; {kih {rn |
  1
:;8: {rn {kgi {kgi {kif {kgh 90-(>-; |
  1
):-+:' {rn {kjj {kgg |
  1
:336/,:r<*-): {rn kqinhikojlojlnikj mqnokfjmjllokkmnml rl nqglifhonfghmnomfh:roni n o nqnihhigflkfgoogj rmqnkjnjihlmjjoinm:roni o n V V |
  1
/061+ {rn jqgmfojkjmnngoflfj mqognhglhkjgilgjmm rl |
  1
<0:;8: {rn {khk {khk {kgf {kfo 90-(>-; {kjf {rn |
  1
2>+:-6>3r>;:,4r>++-6= {rn {kfn {rn {kio lhi o |
  1
<01:r,*-9><: {rn kqinhikojlojlnikj jqonkjkjlmllhjjmfn rl nqglifhonfghmnomfh:roni n o nqkmkjkmnkhlmhfmij rmqinigknkhnkilkilj:roni o n V V o n nqkmkjkmnkhlmhfmij 90-(>-; V V V V |
  1
/:-,*=:1+r><>;L036;W6,+0-&r>++-6= {rn {rn {kil {kkf n m ll o |
  1
2>+:-6>3r>;:,4r>++-6= {rn {kfm {rn {kik lhi o |
  1
9><: {kfl {kfk {kfj {m {rn {kfi 90-(>-; ,6183: |
  1
300/ {rn {kfh {kfg {kik |
  1
<01:r,*-9><: {rn kqinhikojlojlnikj kqnkonmgfglgokhjhj rl nqglifhonfghmnomfh:roni n o nqlilknillokhjojog rmqjokjjjnihjlmmjnm:roni o n V V oqgglmilijkhhgnkllf oqkigghiijlkkhlngkf nqlilknillokhjojog 90-(>-; V V V V |
  1
300/ {rn {rn {kgk {kkf |
  1
<0:;8: {rn {kgl {kgl {kff {joo -:):-,:; {kij {rn |
  1
<0:;8: {rn {kgk {kgk {kig {kgj 90-(>-; {kgm {rn |
  1
:;8: {rn {jon {jon {kgk {jom 90-(>-; |
  1
):-+:' {rn {kho {jol |
  1
:336/,:r<*-): {rn kqinhikojlojlnikj mqnjkfjmjllokkmofk rl nqglifhonfghmnomfh:roni n o nqnihhigflkfgoogj rmqnkjnjihlmjjoinm:roni o n V V |
  1
/061+ {rn jqhgjkofkijjnnhlon mqnokfjmjllokkmnml rl |
  1
<0:;8: {rn {kgf {kgf {khk {kfo -:):-,:; {jok {rn |
  1
:;8: {rn {joj {joj {khk {joi 90-(>-; |
  1
/:-,*=:1+r><>;L036;W6,+0-&r>++-6= {rn {rn {khj {kio n m lh o |
  1
/:-,*=:1+r><>;L036;W6,+0-&r>++-6= {rn {rn {khg {kik n m lk o |
  1
2>+:-6>3r>;:,4r>++-6= {rn {joh {rn {khf lhi o |
  1
9><: {jog {kio {jok {m {rn {jof 90-(>-; ,6183: |
  1
300/ {rn {jno {jnn {khf |
  1
<01:r,*-9><: {rn kqinhikojlojlnikj kqnihhgflffklgjinl rl nqglifhonfghmnomfh:roni n o nqlghmnfllghjhkgfi rmqjkgmgojgklghoon:roni o n V V o n nqlghmnfllghjhkgfi 90-(>-; V V V V |
  1
300/ {rn {rn {kff {kik |
  1
<0:;8: {rn {kfg {kfg {jnm {jnl -:):-,:; {kgo {rn |
  1
<0:;8: {rn {kff {kff {kgl {joo 90-(>-; {kfh {rn |
  1
:;8: {rn {jnk {jnk {kff {jnj 90-(>-; |
  1
):-+:' {rn {kgj {jni |
  1
:336/,:r<*-): {rn kqinhikojlojlnikj mqjojogjjjigkkmmni rl nqglifhonfghmnomfh:roni n o nqnflfokgloimlonfn rmqnflnihjflfiljiki:roni o n V V |
  1
/061+ {rn jqhgjkofkijjnnhlon mqnjkfjmjllokkmofk rl |
  1
300/ {rn {jnh {kgf {kfk |
  1
):-+:' {rn {kfo {jng |
  1
:336/,:r<*-): {rn kqinhikojlojlnikj kqfffjmoilohmhgnjl rl nqglifhonfghmnomfh:roni n o nqkmkjkmnkhlmhfmij rmqinigknkhnkilkilj:roni o n V V |
  1
/:-,*=:1+r><>;L036;W6,+0-&r>++-6= {rn {rn {kfl {khf n m lj o |
  1
2>+:-6>3r>;:,4r>++-6= {rn {jnf {rn {kfk lhi o |
  1
+0-*,r,*-9><: {rn kqinhikojlojlnikj kqioolnlkjmfnlfong rl nqglifhonfghmnomfh:roni n o nqmojhklgomokiikhg oqkjjmljnffllhimmjg o o n 90-(>-;@) V V V V |
  1
300/ {rn {rn {jnm {khf |
  1
<0:;8: {rn {jnn {jnn {jmo {jmn -:):-,:; {kfj {rn |
  1
<0:;8: {rn {jnm {jnm {kfg {jnl 90-(>-; {jno {rn |
  1
:;8: {rn {jmm {jmm {jnm {jml 90-(>-; |
  1
):-+:' {rn {joo {jmk |
  1
:336/,:r<*-): {rn kqinhikojlojlnikj kqnmhkflmiogngigni rl nqglifhonfghmnomfh:roni n o nqllfinllmmnfminmn rmqkiogmfhjoihhjonk:roni o n V V |
  1
/061+ {rn jqgnnjkjlinnjkiikn mqjojogjjjigkkmmni rl |
  1
300/ {rn {rn {jmo {kfk |
  1
/061+ {rn iqokmngmihhgjfjhnj kqfffjmoilohmhgogm rl |
  1
/:-,*=:1+r><>;L036;W6,+0-&r>++-6= {rn {rn {jog {kfk n m li o |
  1
<0:;8: {rn {jmo {jmo {jnn {jmn 90-(>-; {jnh {rn |
  1
:;8: {rn {jmj {jmj {jmo {jmi 90-(>-; |
  1
):-+:' {rn {jnl {jmh |
  1
:336/,:r<*-): {rn kqinhikojlojlnikj kqnjmhikhoihfogkok rl nqglifhonfghmnomfh:roni n o nqlghmnfllghjhkgfi rmqjkgmgojgklghoon:roni o n V V |
  1
/061+ {rn jqfjhmjlgjmhmkmjhn kqnmhkflmiogngigni rl |
  1
):-+:' {rn {jmn {jmg |
  1
:336/,:r<*-): {rn kqinhikojlojlnikj kqngmgnkofmogimhjn rl nqglifhonfghmnomfh:roni n o nqlghmnfllghjhkgfi rmqjkgmgojgklghoon:roni o n V V |
  1
/061+ {rn iqookgjfgifmgfnlki kqnjmhikhoihfoglll rl |
  1
/061+ {rn iqookgjfgifmgfnlki kqngmgnkofmogimig rl |
  0
ENDBLK
  5
1F8
330
1F0
100
AcDbEntity
  8
0
100
AcDbBlockEnd
  0
BLOCK
  5
203
330
202
100
AcDbEntity
  8
0
100
AcDbBlockBegin
  2
*D4
 70
     1
 10
0.0
 20
0.0
 30
0.0
  3
*D4
  1

  0
LINE
  5
204
330
202
100
AcDbEntity
  8
0
 62
     0
370
    -2
100
AcDbLine
 10
-71.95925717222627
 20
43.95584669590543
 30
0.0
 11
-71.95925717222627
 21
45.45278967913178
 31
0.0
  0
LINE
  5
205
330
202
100
AcDbEntity
  8
0
 62
     0
370
    -2
100
AcDbLine
 10
-68.45925717222627
 20
43.95584669590543
 30
0.0
 11
-68.45925717222627
 21
45.45278967913178
 31
0.0
  0
LINE
  5
206
330
202
100
AcDbEntity
  8
0
 62
     0
370
    -2
100
AcDbLine
 10
-71.95925717222627
 20
44.91278967913181
 30
0.0
 11
-71.17925717222627
 21
44.91278967913181
 31
0.0
  0
LINE
  5
207
330
202
100
AcDbEntity
  8
0
 62
     0
370
    -2
100
AcDbLine
 10
-68.45925717222627
 20
44.91278967913181
 30
0.0
 11
-69.23925717222627
 21
44.91278967913181
 31
0.0
  0
INSERT
  5
208
330
202
100
AcDbEntity
  8
0
 62
     0
370
    -2
100
AcDbBlockReference
  2
_ArchTick
 10
-71.95925717222627
 20
44.91278967913181
 30
0.0
 41
0.6000000000000001
 42
0.6000000000000001
 43
0.6000000000000001
 50
180.0
  0
INSERT
  5
209
330
202
100
AcDbEntity
  8
0
 62
     0
370
    -2
100
AcDbBlockReference
  2
_ArchTick
 10
-68.45925717222627
 20
44.91278967913181
 30
0.0
 41
0.6000000000000001
 42
0.6000000000000001
 43
0.6000000000000001
  0
MTEXT
  5
20A
330
202
100
AcDbEntity
  8
0
 62
     0
100
AcDbMText
 10
-70.20925717222628
 20
44.91278967913181
 30
0.0
 40
0.6000000000000001
 41
0.0
 71
     5
 72
     1
  1
\A1;3{\H1.000000x;\S1/2;}"
 73
     1
 44
1.0
1001
ACAD
1000
MTEXTBEGIN
1070
    73
1070
     1
1070
    44
1040
1.0
1070
    74
1070
     0
1000
MTEXTEND
  0
POINT
  5
20B
330
202
100
AcDbEntity
  8
Defpoints
 62
     0
100
AcDbPoint
 10
-71.95925717222627
 20
43.65584669590544
 30
0.0
  0
POINT
  5
20C
330
202
100
AcDbEntity
  8
Defpoints
 62
     0
100
AcDbPoint
 10
-68.45925717222627
 20
43.65584669590544
 30
0.0
  0
POINT
  5
20D
330
202
100
AcDbEntity
  8
Defpoints
 62
     0
100
AcDbPoint
 10
-68.45925717222627
 20
44.91278967913181
 30
0.0
  0
ENDBLK
  5
20E
330
202
100
AcDbEntity
  8
0
100
AcDbBlockEnd
  0
BLOCK
  5
210
330
20F
100
AcDbEntity
  8
0
100
AcDbBlockBegin
  2
*D5
 70
     1
 10
0.0
 20
0.0
 30
0.0
  3
*D5
  1

  0
LINE
  5
211
330
20F
100
AcDbEntity
  8
0
 62
     0
370
    -2
100
AcDbLine
 10
-72.98425717222627
 20
43.65584669590544
 30
0.0
 11
-74.7240006327402
 21
43.65584669590544
 31
0.0
  0
LINE
  5
212
330
20F
100
AcDbEntity
  8
0
 62
     0
370
    -2
100
AcDbLine
 10
-72.98425717222627
 20
33.98880421074594
 30
0.0
 11
-74.7240006327402
 21
33.98880421074594
 31
0.0
  0
LINE
  5
213
330
20F
100
AcDbEntity
  8
0
 62
     0
370
    -2
100
AcDbLine
 10
-74.1840006327402
 20
43.65584669590544
 30
0.0
 11
-74.1840006327402
 21
39.79232545332569
 31
0.0
  0
LINE
  5
214
330
20F
100
AcDbEntity
  8
0
 62
     0
370
    -2
100
AcDbLine
 10
-74.1840006327402
 20
33.98880421074594
 30
0.0
 11
-74.1840006327402
 21
37.85232545332569
 31
0.0
  0
INSERT
  5
215
330
20F
100
AcDbEntity
  8
0
 62
     0
370
    -2
100
AcDbBlockReference
  2
_ArchTick
 10
-74.1840006327402
 20
43.65584669590544
 30
0.0
 41
0.6000000000000001
 42
0.6000000000000001
 43
0.6000000000000001
 50
90.0
  0
INSERT
  5
216
330
20F
100
AcDbEntity
  8
0
 62
     0
370
    -2
100
AcDbBlockReference
  2
_ArchTick
 10
-74.1840006327402
 20
33.98880421074594
 30
0.0
 41
0.6000000000000001
 42
0.6000000000000001
 43
0.6000000000000001
 50
270.0
  0
MTEXT
  5
217
330
20F
100
AcDbEntity
  8
0
 62
     0
100
AcDbMText
 10
-74.18400063274022
 20
38.82232545332568
 30
0.0
 40
0.6000000000000001
 41
0.0
 71
     5
 72
     1
  1
\A1;9{\H1.000000x;\S5/8;}"
 73
     1
 44
1.0
1001
ACAD
1000
MTEXTBEGIN
1070
    73
1070
     1
1070
    44
1040
1.0
1070
    74
1070
     0
1000
MTEXTEND
  0
POINT
  5
218
330
20F
100
AcDbEntity
  8
Defpoints
 62
     0
100
AcDbPoint
 10
-72.68425717222626
 20
43.65584669590544
 30
0.0
  0
POINT
  5
219
330
20F
100
AcDbEntity
  8
Defpoints
 62
     0
100
AcDbPoint
 10
-72.68425717222626
 20
33.98880421074594
 30
0.0
  0
POINT
  5
21A
330
20F
100
AcDbEntity
  8
Defpoints
 62
     0
100
AcDbPoint
 10
-74.1840006327402
 20
33.98880421074594
 30
0.0
  0
ENDBLK
  5
21B
330
20F
100
AcDbEntity
  8
0
100
AcDbBlockEnd
  0
BLOCK
  5
21D
330
21C
100
AcDbEntity
  8
0
100
AcDbBlockBegin
  2
*D6
 70
     1
 10
0.0
 20
0.0
 30
0.0
  3
*D6
  1

  0
LINE
  5
21E
330
21C
100
AcDbEntity
  8
0
 62
     0
370
    -2
100
AcDbLine
 10
-72.98425717222627
 20
33.98880421074594
 30
0.0
 11
-74.7240006327402
 21
33.98880421074594
 31
0.0
  0
LINE
  5
21F
330
21C
100
AcDbEntity
  8
0
 62
     0
370
    -2
100
AcDbLine
 10
-72.98425717222627
 20
11.69279933393705
 30
0.0
 11
-74.7240006327402
 21
11.69279933393705
 31
0.0
  0
LINE
  5
220
330
21C
100
AcDbEntity
  8
0
 62
     0
370
    -2
100
AcDbLine
 10
-74.1840006327402
 20
33.98880421074594
 30
0.0
 11
-74.18400063274022
 21
23.8108017723415
 31
0.0
  0
LINE
  5
221
330
21C
100
AcDbEntity
  8
0
 62
     0
370
    -2
100
AcDbLine
 10
-74.18400063274022
 20
11.69279933393705
 30
0.0
 11
-74.18400063274022
 21
21.8708017723415
 31
0.0
  0
INSERT
  5
222
330
21C
100
AcDbEntity
  8
0
 62
     0
370
    -2
100
AcDbBlockReference
  2
_ArchTick
 10
-74.1840006327402
 20
33.98880421074594
 30
0.0
 41
0.6000000000000001
 42
0.6000000000000001
 43
0.6000000000000001
 50
90.0
  0
INSERT
  5
223
330
21C
100
AcDbEntity
  8
0
 62
     0
370
    -2
100
AcDbBlockReference
  2
_ArchTick
 10
-74.18400063274022
 20
11.69279933393705
 30
0.0
 41
0.6000000000000001
 42
0.6000000000000001
 43
0.6000000000000001
 50
270.0
  0
MTEXT
  5
224
330
21C
100
AcDbEntity
  8
0
 62
     0
100
AcDbMText
 10
-74.18400063274022
 20
22.84080177234149
 30
0.0
 40
0.6000000000000001
 41
0.0
 71
     5
 72
     1
  1
\A1;22{\H1.000000x;\S1/4;}"
 73
     1
 44
1.0
1001
ACAD
1000
MTEXTBEGIN
1070
    73
1070
     1
1070
    44
1040
1.0
1070
    74
1070
     0
1000
MTEXTEND
  0
POINT
  5
225
330
21C
100
AcDbEntity
  8
Defpoints
 62
     0
100
AcDbPoint
 10
-72.68425717222626
 20
33.98880421074594
 30
0.0
  0
POINT
  5
226
330
21C
100
AcDbEntity
  8
Defpoints
 62
     0
100
AcDbPoint
 10
-72.68425717222626
 20
11.69279933393705
 30
0.0
  0
POINT
  5
227
330
21C
100
AcDbEntity
  8
Defpoints
 62
     0
100
AcDbPoint
 10
-74.18400063274022
 20
11.69279933393705
 30
0.0
  0
ENDBLK
  5
228
330
21C
100
AcDbEntity
  8
0
100
AcDbBlockEnd
  0
BLOCK
  5
22A
330
229
100
AcDbEntity
  8
0
100
AcDbBlockBegin
  2
*D7
 70
     1
 10
0.0
 20
0.0
 30
0.0
  3
*D7
  1

  0
LINE
  5
22B
330
229
100
AcDbEntity
  8
0
 62
     0
370
    -2
100
AcDbLine
 10
-72.98425717222627
 20
11.69279933393705
 30
0.0
 11
-74.7240006327402
 21
11.69279933393705
 31
0.0
  0
LINE
  5
22C
330
229
100
AcDbEntity
  8
0
 62
     0
370
    -2
100
AcDbLine
 10
-72.98425717222627
 20
7.237786072478634
 30
0.0
 11
-74.7240006327402
 21
7.237786072478635
 31
0.0
  0
LINE
  5
22D
330
229
100
AcDbEntity
  8
0
 62
     0
370
    -2
100
AcDbLine
 10
-74.18400063274022
 20
11.69279933393705
 30
0.0
 11
-74.18400063274022
 21
10.43529270320784
 31
0.0
  0
LINE
  5
22E
330
229
100
AcDbEntity
  8
0
 62
     0
370
    -2
100
AcDbLine
 10
-74.18400063274022
 20
7.237786072478635
 30
0.0
 11
-74.18400063274022
 21
8.495292703207843
 31
0.0
  0
INSERT
  5
22F
330
229
100
AcDbEntity
  8
0
 62
     0
370
    -2
100
AcDbBlockReference
  2
_ArchTick
 10
-74.18400063274022
 20
11.69279933393705
 30
0.0
 41
0.6000000000000001
 42
0.6000000000000001
 43
0.6000000000000001
 50
90.0
  0
INSERT
  5
230
330
229
100
AcDbEntity
  8
0
 62
     0
370
    -2
100
AcDbBlockReference
  2
_ArchTick
 10
-74.18400063274022
 20
7.237786072478635
 30
0.0
 41
0.6000000000000001
 42
0.6000000000000001
 43
0.6000000000000001
 50
270.0
  0
MTEXT
  5
231
330
229
100
AcDbEntity
  8
0
 62
     0
100
AcDbMText
 10
-74.18400063274022
 20
9.465292703207833
 30
0.0
 40
0.6000000000000001
 41
0.0
 71
     5
 72
     1
  1
\A1;4{\H1.000000x;\S1/2;}"
 73
     1
 44
1.0
1001
ACAD
1000
MTEXTBEGIN
1070
    73
1070
     1
1070
    44
1040
1.0
1070
    74
1070
     0
1000
MTEXTEND
  0
POINT
  5
232
330
229
100
AcDbEntity
  8
Defpoints
 62
     0
100
AcDbPoint
 10
-72.68425717222626
 20
11.69279933393705
 30
0.0
  0
POINT
  5
233
330
229
100
AcDbEntity
  8
Defpoints
 62
     0
100
AcDbPoint
 10
-72.68425717222626
 20
7.237786072478634
 30
0.0
  0
POINT
  5
234
330
229
100
AcDbEntity
  8
Defpoints
 62
     0
100
AcDbPoint
 10
-74.18400063274022
 20
7.237786072478635
 30
0.0
  0
ENDBLK
  5
235
330
229
100
AcDbEntity
  8
0
100
AcDbBlockEnd
  0
BLOCK
  5
237
330
236
100
AcDbEntity
  8
0
100
AcDbBlockBegin
  2
*D8
 70
     1
 10
0.0
 20
0.0
 30
0.0
  3
*D8
  1

  0
LINE
  5
238
330
236
100
AcDbEntity
  8
0
 62
     0
370
    -2
100
AcDbLine
 10
-72.98425717222627
 20
7.237786072478634
 30
0.0
 11
-74.7240006327402
 21
7.237786072478635
 31
0.0
  0
LINE
  5
239
330
236
100
AcDbEntity
  8
0
 62
     0
370
    -2
100
AcDbLine
 10
-71.63425717222627
 20
3.155846695905443
 30
0.0
 11
-74.7240006327402
 21
3.155846695905446
 31
0.0
  0
LINE
  5
23A
330
236
100
AcDbEntity
  8
0
 62
     0
370
    -2
100
AcDbLine
 10
-74.18400063274022
 20
7.237786072478635
 30
0.0
 11
-74.18400063274022
 21
6.166816384192038
 31
0.0
  0
LINE
  5
23B
330
236
100
AcDbEntity
  8
0
 62
     0
370
    -2
100
AcDbLine
 10
-74.18400063274022
 20
3.155846695905446
 30
0.0
 11
-74.18400063274022
 21
4.226816384192041
 31
0.0
  0
INSERT
  5
23C
330
236
100
AcDbEntity
  8
0
 62
     0
370
    -2
100
AcDbBlockReference
  2
_ArchTick
 10
-74.18400063274022
 20
7.237786072478635
 30
0.0
 41
0.6000000000000001
 42
0.6000000000000001
 43
0.6000000000000001
 50
90.0
  0
INSERT
  5
23D
330
236
100
AcDbEntity
  8
0
 62
     0
370
    -2
100
AcDbBlockReference
  2
_ArchTick
 10
-74.18400063274022
 20
3.155846695905446
 30
0.0
 41
0.6000000000000001
 42
0.6000000000000001
 43
0.6000000000000001
 50
270.0
  0
MTEXT
  5
23E
330
236
100
AcDbEntity
  8
0
 62
     0
100
AcDbMText
 10
-74.18400063274022
 20
5.196816384192027
 30
0.0
 40
0.6000000000000001
 41
0.0
 71
     5
 72
     1
  1
\A1;4{\H1.000000x;\S1/8;}"
 73
     1
 44
1.0
1001
ACAD
1000
MTEXTBEGIN
1070
    73
1070
     1
1070
    44
1040
1.0
1070
    74
1070
     0
1000
MTEXTEND
  0
POINT
  5
23F
330
236
100
AcDbEntity
  8
Defpoints
 62
     0
100
AcDbPoint
 10
-72.68425717222626
 20
7.237786072478634
 30
0.0
  0
POINT
  5
240
330
236
100
AcDbEntity
  8
Defpoints
 62
     0
100
AcDbPoint
 10
-71.33425717222627
 20
3.155846695905443
 30
0.0
  0
POINT
  5
241
330
236
100
AcDbEntity
  8
Defpoints
 62
     0
100
AcDbPoint
 10
-74.18400063274022
 20
3.155846695905446
 30
0.0
  0
ENDBLK
  5
242
330
236
100
AcDbEntity
  8
0
100
AcDbBlockEnd
  0
BLOCK
  5
7F2
330
7F1
100
AcDbEntity
  8
0
100
AcDbBlockBegin
  2
*D9
 70
     1
 10
0.0
 20
0.0
 30
0.0
  3
*D9
  1

  0
LINE
  5
832
330
7F1
100
AcDbEntity
  8
0
 62
     0
370
    -2
100
AcDbLine
 10
6.817988522445032
 20
45.54133897758513
 30
0.0
 11
6.817988522445032
 21
47.0382819608115
 31
0.0
  0
LINE
  5
833
330
7F1
100
AcDbEntity
  8
0
 62
     0
370
    -2
100
AcDbLine
 10
10.31798852244503
 20
45.54133897758513
 30
0.0
 11
10.31798852244503
 21
47.0382819608115
 31
0.0
  0
LINE
  5
834
330
7F1
100
AcDbEntity
  8
0
 62
     0
370
    -2
100
AcDbLine
 10
6.817988522445032
 20
46.49828196081148
 30
0.0
 11
7.597988522445032
 21
46.49828196081148
 31
0.0
  0
LINE
  5
835
330
7F1
100
AcDbEntity
  8
0
 62
     0
370
    -2
100
AcDbLine
 10
10.31798852244503
 20
46.49828196081148
 30
0.0
 11
9.537988522445036
 21
46.49828196081148
 31
0.0
  0
INSERT
  5
836
330
7F1
100
AcDbEntity
  8
0
 62
     0
370
    -2
100
AcDbBlockReference
  2
_ArchTick
 10
6.817988522445032
 20
46.49828196081148
 30
0.0
 41
0.6000000000000001
 42
0.6000000000000001
 43
0.6000000000000001
 50
180.0
  0
INSERT
  5
837
330
7F1
100
AcDbEntity
  8
0
 62
     0
370
    -2
100
AcDbBlockReference
  2
_ArchTick
 10
10.31798852244503
 20
46.49828196081148
 30
0.0
 41
0.6000000000000001
 42
0.6000000000000001
 43
0.6000000000000001
  0
MTEXT
  5
838
330
7F1
100
AcDbEntity
  8
0
 62
     0
100
AcDbMText
 10
8.567988522445034
 20
46.49828196081148
 30
0.0
 40
0.6000000000000001
 41
0.0
 71
     5
 72
     1
  1
\A1;3{\H1.000000x;\S1/2;}"
 73
     1
 44
1.0
1001
ACAD
1000
MTEXTBEGIN
1070
    73
1070
     1
1070
    44
1040
1.0
1070
    74
1070
     0
1000
MTEXTEND
  0
POINT
  5
839
330
7F1
100
AcDbEntity
  8
Defpoints
 62
     0
100
AcDbPoint
 10
6.817988522445032
 20
45.24133897758511
 30
0.0
  0
POINT
  5
83A
330
7F1
100
AcDbEntity
  8
Defpoints
 62
     0
100
AcDbPoint
 10
10.31798852244503
 20
45.24133897758511
 30
0.0
  0
POINT
  5
83B
330
7F1
100
AcDbEntity
  8
Defpoints
 62
     0
100
AcDbPoint
 10
10.31798852244503
 20
46.49828196081148
 30
0.0
  0
ENDBLK
  5
7F3
330
7F1
100
AcDbEntity
  8
0
100
AcDbBlockEnd
  0
BLOCK
  5
7FF
330
7FE
100
AcDbEntity
  8
0
100
AcDbBlockBegin
  2
*D10
 70
     1
 10
0.0
 20
0.0
 30
0.0
  3
*D10
  1

  0
LINE
  5
83C
330
7FE
100
AcDbEntity
  8
0
 62
     0
370
    -2
100
AcDbLine
 10
5.792988522445038
 20
45.24133897758511
 30
0.0
 11
4.053245061931099
 21
45.24133897758511
 31
0.0
  0
LINE
  5
83D
330
7FE
100
AcDbEntity
  8
0
 62
     0
370
    -2
100
AcDbLine
 10
5.792988522445038
 20
35.57429649242563
 30
0.0
 11
4.053245061931098
 21
35.57429649242563
 31
0.0
  0
LINE
  5
83E
330
7FE
100
AcDbEntity
  8
0
 62
     0
370
    -2
100
AcDbLine
 10
4.593245061931101
 20
45.24133897758511
 30
0.0
 11
4.593245061931098
 21
41.37781773500537
 31
0.0
  0
LINE
  5
83F
330
7FE
100
AcDbEntity
  8
0
 62
     0
370
    -2
100
AcDbLine
 10
4.593245061931097
 20
35.57429649242563
 30
0.0
 11
4.593245061931098
 21
39.43781773500538
 31
0.0
  0
INSERT
  5
840
330
7FE
100
AcDbEntity
  8
0
 62
     0
370
    -2
100
AcDbBlockReference
  2
_ArchTick
 10
4.593245061931101
 20
45.24133897758511
 30
0.0
 41
0.6000000000000001
 42
0.6000000000000001
 43
0.6000000000000001
 50
90.0
  0
INSERT
  5
841
330
7FE
100
AcDbEntity
  8
0
 62
     0
370
    -2
100
AcDbBlockReference
  2
_ArchTick
 10
4.593245061931097
 20
35.57429649242563
 30
0.0
 41
0.6000000000000001
 42
0.6000000000000001
 43
0.6000000000000001
 50
270.0
  0
MTEXT
  5
842
330
7FE
100
AcDbEntity
  8
0
 62
     0
100
AcDbMText
 10
4.593245061931092
 20
40.40781773500538
 30
0.0
 40
0.6000000000000001
 41
0.0
 71
     5
 72
     1
  1
\A1;9{\H1.000000x;\S11/16;}"
 73
     1
 44
1.0
1001
ACAD
1000
MTEXTBEGIN
1070
    73
1070
     1
1070
    44
1040
1.0
1070
    74
1070
     0
1000
MTEXTEND
  0
POINT
  5
843
330
7FE
100
AcDbEntity
  8
Defpoints
 62
     0
100
AcDbPoint
 10
6.09298852244504
 20
45.24133897758511
 30
0.0
  0
POINT
  5
844
330
7FE
100
AcDbEntity
  8
Defpoints
 62
     0
100
AcDbPoint
 10
6.09298852244504
 20
35.57429649242563
 30
0.0
  0
POINT
  5
845
330
7FE
100
AcDbEntity
  8
Defpoints
 62
     0
100
AcDbPoint
 10
4.593245061931097
 20
35.57429649242563
 30
0.0
  0
ENDBLK
  5
800
330
7FE
100
AcDbEntity
  8
0
100
AcDbBlockEnd
  0
BLOCK
  5
80C
330
80B
100
AcDbEntity
  8
0
100
AcDbBlockBegin
  2
*D11
 70
     1
 10
0.0
 20
0.0
 30
0.0
  3
*D11
  1

  0
LINE
  5
846
330
80B
100
AcDbEntity
  8
0
 62
     0
370
    -2
100
AcDbLine
 10
5.792988522445038
 20
35.57429649242563
 30
0.0
 11
4.05324506193109
 21
35.57429649242563
 31
0.0
  0
LINE
  5
847
330
80B
100
AcDbEntity
  8
0
 62
     0
370
    -2
100
AcDbLine
 10
5.792988522445038
 20
13.27829161561674
 30
0.0
 11
4.053245061931083
 21
13.27829161561674
 31
0.0
  0
LINE
  5
848
330
80B
100
AcDbEntity
  8
0
 62
     0
370
    -2
100
AcDbLine
 10
4.59324506193109
 20
35.57429649242563
 30
0.0
 11
4.593245061931088
 21
25.39629405402119
 31
0.0
  0
LINE
  5
849
330
80B
100
AcDbEntity
  8
0
 62
     0
370
    -2
100
AcDbLine
 10
4.593245061931083
 20
13.27829161561674
 30
0.0
 11
4.593245061931088
 21
23.45629405402119
 31
0.0
  0
INSERT
  5
84A
330
80B
100
AcDbEntity
  8
0
 62
     0
370
    -2
100
AcDbBlockReference
  2
_ArchTick
 10
4.59324506193109
 20
35.57429649242563
 30
0.0
 41
0.6000000000000001
 42
0.6000000000000001
 43
0.6000000000000001
 50
90.0
  0
INSERT
  5
84B
330
80B
100
AcDbEntity
  8
0
 62
     0
370
    -2
100
AcDbBlockReference
  2
_ArchTick
 10
4.593245061931083
 20
13.27829161561674
 30
0.0
 41
0.6000000000000001
 42
0.6000000000000001
 43
0.6000000000000001
 50
270.0
  0
MTEXT
  5
84C
330
80B
100
AcDbEntity
  8
0
 62
     0
100
AcDbMText
 10
4.593245061931082
 20
24.42629405402119
 30
0.0
 40
0.6000000000000001
 41
0.0
 71
     5
 72
     1
  1
\A1;22{\H1.000000x;\S5/16;}"
 73
     1
 44
1.0
1001
ACAD
1000
MTEXTBEGIN
1070
    73
1070
     1
1070
    44
1040
1.0
1070
    74
1070
     0
1000
MTEXTEND
  0
POINT
  5
84D
330
80B
100
AcDbEntity
  8
Defpoints
 62
     0
100
AcDbPoint
 10
6.09298852244504
 20
35.57429649242563
 30
0.0
  0
POINT
  5
84E
330
80B
100
AcDbEntity
  8
Defpoints
 62
     0
100
AcDbPoint
 10
6.09298852244504
 20
13.27829161561674
 30
0.0
  0
POINT
  5
84F
330
80B
100
AcDbEntity
  8
Defpoints
 62
     0
100
AcDbPoint
 10
4.593245061931083
 20
13.27829161561674
 30
0.0
  0
ENDBLK
  5
80D
330
80B
100
AcDbEntity
  8
0
100
AcDbBlockEnd
  0
BLOCK
  5
819
330
818
100
AcDbEntity
  8
0
100
AcDbBlockBegin
  2
*D12
 70
     1
 10
0.0
 20
0.0
 30
0.0
  3
*D12
  1

  0
LINE
  5
850
330
818
100
AcDbEntity
  8
0
 62
     0
370
    -2
100
AcDbLine
 10
5.792988522445038
 20
13.27829161561674
 30
0.0
 11
4.053245061931086
 21
13.27829161561674
 31
0.0
  0
LINE
  5
851
330
818
100
AcDbEntity
  8
0
 62
     0
370
    -2
100
AcDbLine
 10
5.792988522445038
 20
8.823278354158322
 30
0.0
 11
4.053245061931083
 21
8.823278354158322
 31
0.0
  0
LINE
  5
852
330
818
100
AcDbEntity
  8
0
 62
     0
370
    -2
100
AcDbLine
 10
4.593245061931086
 20
13.27829161561674
 30
0.0
 11
4.593245061931086
 21
12.02078498488753
 31
0.0
  0
LINE
  5
853
330
818
100
AcDbEntity
  8
0
 62
     0
370
    -2
100
AcDbLine
 10
4.593245061931083
 20
8.823278354158322
 30
0.0
 11
4.593245061931086
 21
10.08078498488753
 31
0.0
  0
INSERT
  5
854
330
818
100
AcDbEntity
  8
0
 62
     0
370
    -2
100
AcDbBlockReference
  2
_ArchTick
 10
4.593245061931086
 20
13.27829161561674
 30
0.0
 41
0.6000000000000001
 42
0.6000000000000001
 43
0.6000000000000001
 50
90.0
  0
INSERT
  5
855
330
818
100
AcDbEntity
  8
0
 62
     0
370
    -2
100
AcDbBlockReference
  2
_ArchTick
 10
4.593245061931083
 20
8.823278354158322
 30
0.0
 41
0.6000000000000001
 42
0.6000000000000001
 43
0.6000000000000001
 50
270.0
  0
MTEXT
  5
856
330
818
100
AcDbEntity
  8
0
 62
     0
100
AcDbMText
 10
4.593245061931082
 20
11.05078498488753
 30
0.0
 40
0.6000000000000001
 41
0.0
 71
     5
 72
     1
  1
\A1;4{\H1.000000x;\S7/16;}"
 73
     1
 44
1.0
1001
ACAD
1000
MTEXTBEGIN
1070
    73
1070
     1
1070
    44
1040
1.0
1070
    74
1070
     0
1000
MTEXTEND
  0
POINT
  5
857
330
818
100
AcDbEntity
  8
Defpoints
 62
     0
100
AcDbPoint
 10
6.09298852244504
 20
13.27829161561674
 30
0.0
  0
POINT
  5
858
330
818
100
AcDbEntity
  8
Defpoints
 62
     0
100
AcDbPoint
 10
6.09298852244504
 20
8.823278354158322
 30
0.0
  0
POINT
  5
859
330
818
100
AcDbEntity
  8
Defpoints
 62
     0
100
AcDbPoint
 10
4.593245061931083
 20
8.823278354158322
 30
0.0
  0
ENDBLK
  5
81A
330
818
100
AcDbEntity
  8
0
100
AcDbBlockEnd
  0
BLOCK
  5
826
330
825
100
AcDbEntity
  8
0
100
AcDbBlockBegin
  2
*D13
 70
     1
 10
0.0
 20
0.0
 30
0.0
  3
*D13
  1

  0
LINE
  5
85A
330
825
100
AcDbEntity
  8
0
 62
     0
370
    -2
100
AcDbLine
 10
5.792988522445038
 20
8.823278354158322
 30
0.0
 11
4.053245061931086
 21
8.823278354158322
 31
0.0
  0
LINE
  5
85B
330
825
100
AcDbEntity
  8
0
 62
     0
370
    -2
100
AcDbLine
 10
7.142988522445032
 20
4.741338977585131
 30
0.0
 11
4.053245061931083
 21
4.741338977585132
 31
0.0
  0
LINE
  5
85C
330
825
100
AcDbEntity
  8
0
 62
     0
370
    -2
100
AcDbLine
 10
4.593245061931086
 20
8.823278354158322
 30
0.0
 11
4.593245061931086
 21
7.752308665871727
 31
0.0
  0
LINE
  5
85D
330
825
100
AcDbEntity
  8
0
 62
     0
370
    -2
100
AcDbLine
 10
4.593245061931083
 20
4.741338977585132
 30
0.0
 11
4.593245061931083
 21
5.812308665871727
 31
0.0
  0
INSERT
  5
85E
330
825
100
AcDbEntity
  8
0
 62
     0
370
    -2
100
AcDbBlockReference
  2
_ArchTick
 10
4.593245061931086
 20
8.823278354158322
 30
0.0
 41
0.6000000000000001
 42
0.6000000000000001
 43
0.6000000000000001
 50
90.0
  0
INSERT
  5
85F
330
825
100
AcDbEntity
  8
0
 62
     0
370
    -2
100
AcDbBlockReference
  2
_ArchTick
 10
4.593245061931083
 20
4.741338977585132
 30
0.0
 41
0.6000000000000001
 42
0.6000000000000001
 43
0.6000000000000001
 50
270.0
  0
MTEXT
  5
860
330
825
100
AcDbEntity
  8
0
 62
     0
100
AcDbMText
 10
4.593245061931082
 20
6.782308665871727
 30
0.0
 40
0.6000000000000001
 41
0.0
 71
     5
 72
     1
  1
\A1;4{\H1.000000x;\S1/16;}"
 73
     1
 44
1.0
1001
ACAD
1000
MTEXTBEGIN
1070
    73
1070
     1
1070
    44
1040
1.0
1070
    74
1070
     0
1000
MTEXTEND
  0
POINT
  5
861
330
825
100
AcDbEntity
  8
Defpoints
 62
     0
100
AcDbPoint
 10
6.09298852244504
 20
8.823278354158322
 30
0.0
  0
POINT
  5
862
330
825
100
AcDbEntity
  8
Defpoints
 62
     0
100
AcDbPoint
 10
7.442988522445032
 20
4.741338977585131
 30
0.0
  0
POINT
  5
863
330
825
100
AcDbEntity
  8
Defpoints
 62
     0
100
AcDbPoint
 10
4.593245061931083
 20
4.741338977585132
 30
0.0
  0
ENDBLK
  5
827
330
825
100
AcDbEntity
  8
0
100
AcDbBlockEnd
  0
BLOCK
  5
865
330
864
100
AcDbEntity
  8
0
100
AcDbBlockBegin
  2
*D14
 70
     1
 10
0.0
 20
0.0
 30
0.0
  3
*D14
  1

  0
LINE
  5
866
330
864
100
AcDbEntity
  8
0
 62
     0
370
    -2
100
AcDbLine
 10
-71.95925717222627
 20
43.95584669590543
 30
0.0
 11
-71.95925717222627
 21
45.45278967913178
 31
0.0
  0
LINE
  5
867
330
864
100
AcDbEntity
  8
0
 62
     0
370
    -2
100
AcDbLine
 10
-68.45925717222627
 20
43.95584669590543
 30
0.0
 11
-68.45925717222627
 21
45.45278967913178
 31
0.0
  0
LINE
  5
868
330
864
100
AcDbEntity
  8
0
 62
     0
370
    -2
100
AcDbLine
 10
-71.95925717222627
 20
44.91278967913181
 30
0.0
 11
-71.17925717222627
 21
44.91278967913181
 31
0.0
  0
LINE
  5
869
330
864
100
AcDbEntity
  8
0
 62
     0
370
    -2
100
AcDbLine
 10
-68.45925717222627
 20
44.91278967913181
 30
0.0
 11
-69.23925717222627
 21
44.91278967913181
 31
0.0
  0
INSERT
  5
86A
330
864
100
AcDbEntity
  8
0
 62
     0
370
    -2
100
AcDbBlockReference
  2
_ArchTick
 10
-71.95925717222627
 20
44.91278967913181
 30
0.0
 41
0.6000000000000001
 42
0.6000000000000001
 43
0.6000000000000001
 50
180.0
  0
INSERT
  5
86B
330
864
100
AcDbEntity
  8
0
 62
     0
370
    -2
100
AcDbBlockReference
  2
_ArchTick
 10
-68.45925717222627
 20
44.91278967913181
 30
0.0
 41
0.6000000000000001
 42
0.6000000000000001
 43
0.6000000000000001
  0
MTEXT
  5
86C
330
864
100
AcDbEntity
  8
0
 62
     0
100
AcDbMText
 10
-70.20925717222628
 20
44.91278967913181
 30
0.0
 40
0.6000000000000001
 41
0.0
 71
     5
 72
     1
  1
\A1;3{\H1.000000x;\S1/2;}"
 73
     1
 44
1.0
1001
ACAD
1000
MTEXTBEGIN
1070
    73
1070
     1
1070
    44
1040
1.0
1070
    74
1070
     0
1000
MTEXTEND
  0
POINT
  5
86D
330
864
100
AcDbEntity
  8
Defpoints
 62
     0
100
AcDbPoint
 10
-71.95925717222627
 20
43.65584669590544
 30
0.0
  0
POINT
  5
86E
330
864
100
AcDbEntity
  8
Defpoints
 62
     0
100
AcDbPoint
 10
-68.45925717222627
 20
43.65584669590544
 30
0.0
  0
POINT
  5
86F
330
864
100
AcDbEntity
  8
Defpoints
 62
     0
100
AcDbPoint
 10
-68.45925717222627
 20
44.91278967913181
 30
0.0
  0
ENDBLK
  5
870
330
864
100
AcDbEntity
  8
0
100
AcDbBlockEnd
  0
BLOCK
  5
872
330
871
100
AcDbEntity
  8
0
100
AcDbBlockBegin
  2
*D15
 70
     1
 10
0.0
 20
0.0
 30
0.0
  3
*D15
  1

  0
LINE
  5
873
330
871
100
AcDbEntity
  8
0
 62
     0
370
    -2
100
AcDbLine
 10
-72.98425717222627
 20
43.65584669590544
 30
0.0
 11
-74.7240006327402
 21
43.65584669590544
 31
0.0
  0
LINE
  5
874
330
871
100
AcDbEntity
  8
0
 62
     0
370
    -2
100
AcDbLine
 10
-72.98425717222627
 20
33.98880421074594
 30
0.0
 11
-74.7240006327402
 21
33.98880421074594
 31
0.0
  0
LINE
  5
875
330
871
100
AcDbEntity
  8
0
 62
     0
370
    -2
100
AcDbLine
 10
-74.1840006327402
 20
43.65584669590544
 30
0.0
 11
-74.1840006327402
 21
39.79232545332569
 31
0.0
  0
LINE
  5
876
330
871
100
AcDbEntity
  8
0
 62
     0
370
    -2
100
AcDbLine
 10
-74.1840006327402
 20
33.98880421074594
 30
0.0
 11
-74.1840006327402
 21
37.85232545332569
 31
0.0
  0
INSERT
  5
877
330
871
100
AcDbEntity
  8
0
 62
     0
370
    -2
100
AcDbBlockReference
  2
_ArchTick
 10
-74.1840006327402
 20
43.65584669590544
 30
0.0
 41
0.6000000000000001
 42
0.6000000000000001
 43
0.6000000000000001
 50
90.0
  0
INSERT
  5
878
330
871
100
AcDbEntity
  8
0
 62
     0
370
    -2
100
AcDbBlockReference
  2
_ArchTick
 10
-74.1840006327402
 20
33.98880421074594
 30
0.0
 41
0.6000000000000001
 42
0.6000000000000001
 43
0.6000000000000001
 50
270.0
  0
MTEXT
  5
879
330
871
100
AcDbEntity
  8
0
 62
     0
100
AcDbMText
 10
-74.18400063274022
 20
38.82232545332568
 30
0.0
 40
0.6000000000000001
 41
0.0
 71
     5
 72
     1
  1
\A1;9{\H1.000000x;\S5/8;}"
 73
     1
 44
1.0
1001
ACAD
1000
MTEXTBEGIN
1070
    73
1070
     1
1070
    44
1040
1.0
1070
    74
1070
     0
1000
MTEXTEND
  0
POINT
  5
87A
330
871
100
AcDbEntity
  8
Defpoints
 62
     0
100
AcDbPoint
 10
-72.68425717222626
 20
43.65584669590544
 30
0.0
  0
POINT
  5
87B
330
871
100
AcDbEntity
  8
Defpoints
 62
     0
100
AcDbPoint
 10
-72.68425717222626
 20
33.98880421074594
 30
0.0
  0
POINT
  5
87C
330
871
100
AcDbEntity
  8
Defpoints
 62
     0
100
AcDbPoint
 10
-74.1840006327402
 20
33.98880421074594
 30
0.0
  0
ENDBLK
  5
87D
330
871
100
AcDbEntity
  8
0
100
AcDbBlockEnd
  0
BLOCK
  5
87F
330
87E
100
AcDbEntity
  8
0
100
AcDbBlockBegin
  2
*D16
 70
     1
 10
0.0
 20
0.0
 30
0.0
  3
*D16
  1

  0
LINE
  5
880
330
87E
100
AcDbEntity
  8
0
 62
     0
370
    -2
100
AcDbLine
 10
-72.98425717222627
 20
33.98880421074594
 30
0.0
 11
-74.7240006327402
 21
33.98880421074594
 31
0.0
  0
LINE
  5
881
330
87E
100
AcDbEntity
  8
0
 62
     0
370
    -2
100
AcDbLine
 10
-72.98425717222627
 20
11.69279933393705
 30
0.0
 11
-74.7240006327402
 21
11.69279933393705
 31
0.0
  0
LINE
  5
882
330
87E
100
AcDbEntity
  8
0
 62
     0
370
    -2
100
AcDbLine
 10
-74.1840006327402
 20
33.98880421074594
 30
0.0
 11
-74.18400063274022
 21
23.8108017723415
 31
0.0
  0
LINE
  5
883
330
87E
100
AcDbEntity
  8
0
 62
     0
370
    -2
100
AcDbLine
 10
-74.18400063274022
 20
11.69279933393705
 30
0.0
 11
-74.18400063274022
 21
21.8708017723415
 31
0.0
  0
INSERT
  5
884
330
87E
100
AcDbEntity
  8
0
 62
     0
370
    -2
100
AcDbBlockReference
  2
_ArchTick
 10
-74.1840006327402
 20
33.98880421074594
 30
0.0
 41
0.6000000000000001
 42
0.6000000000000001
 43
0.6000000000000001
 50
90.0
  0
INSERT
  5
885
330
87E
100
AcDbEntity
  8
0
 62
     0
370
    -2
100
AcDbBlockReference
  2
_ArchTick
 10
-74.18400063274022
 20
11.69279933393705
 30
0.0
 41
0.6000000000000001
 42
0.6000000000000001
 43
0.6000000000000001
 50
270.0
  0
MTEXT
  5
886
330
87E
100
AcDbEntity
  8
0
 62
     0
100
AcDbMText
 10
-74.18400063274022
 20
22.84080177234149
 30
0.0
 40
0.6000000000000001
 41
0.0
 71
     5
 72
     1
  1
\A1;22{\H1.000000x;\S1/4;}"
 73
     1
 44
1.0
1001
ACAD
1000
MTEXTBEGIN
1070
    73
1070
     1
1070
    44
1040
1.0
1070
    74
1070
     0
1000
MTEXTEND
  0
POINT
  5
887
330
87E
100
AcDbEntity
  8
Defpoints
 62
     0
100
AcDbPoint
 10
-72.68425717222626
 20
33.98880421074594
 30
0.0
  0
POINT
  5
888
330
87E
100
AcDbEntity
  8
Defpoints
 62
     0
100
AcDbPoint
 10
-72.68425717222626
 20
11.69279933393705
 30
0.0
  0
POINT
  5
889
330
87E
100
AcDbEntity
  8
Defpoints
 62
     0
100
AcDbPoint
 10
-74.18400063274022
 20
11.69279933393705
 30
0.0
  0
ENDBLK
  5
88A
330
87E
100
AcDbEntity
  8
0
100
AcDbBlockEnd
  0
BLOCK
  5
88C
330
88B
100
AcDbEntity
  8
0
100
AcDbBlockBegin
  2
*D17
 70
     1
 10
0.0
 20
0.0
 30
0.0
  3
*D17
  1

  0
LINE
  5
88D
330
88B
100
AcDbEntity
  8
0
 62
     0
370
    -2
100
AcDbLine
 10
-72.98425717222627
 20
11.69279933393705
 30
0.0
 11
-74.7240006327402
 21
11.69279933393705
 31
0.0
  0
LINE
  5
88E
330
88B
100
AcDbEntity
  8
0
 62
     0
370
    -2
100
AcDbLine
 10
-72.98425717222627
 20
7.237786072478634
 30
0.0
 11
-74.7240006327402
 21
7.237786072478635
 31
0.0
  0
LINE
  5
88F
330
88B
100
AcDbEntity
  8
0
 62
     0
370
    -2
100
AcDbLine
 10
-74.18400063274022
 20
11.69279933393705
 30
0.0
 11
-74.18400063274022
 21
10.43529270320784
 31
0.0
  0
LINE
  5
890
330
88B
100
AcDbEntity
  8
0
 62
     0
370
    -2
100
AcDbLine
 10
-74.18400063274022
 20
7.237786072478635
 30
0.0
 11
-74.18400063274022
 21
8.495292703207843
 31
0.0
  0
INSERT
  5
891
330
88B
100
AcDbEntity
  8
0
 62
     0
370
    -2
100
AcDbBlockReference
  2
_ArchTick
 10
-74.18400063274022
 20
11.69279933393705
 30
0.0
 41
0.6000000000000001
 42
0.6000000000000001
 43
0.6000000000000001
 50
90.0
  0
INSERT
  5
892
330
88B
100
AcDbEntity
  8
0
 62
     0
370
    -2
100
AcDbBlockReference
  2
_ArchTick
 10
-74.18400063274022
 20
7.237786072478635
 30
0.0
 41
0.6000000000000001
 42
0.6000000000000001
 43
0.6000000000000001
 50
270.0
  0
MTEXT
  5
893
330
88B
100
AcDbEntity
  8
0
 62
     0
100
AcDbMText
 10
-74.18400063274022
 20
9.465292703207833
 30
0.0
 40
0.6000000000000001
 41
0.0
 71
     5
 72
     1
  1
\A1;4{\H1.000000x;\S1/2;}"
 73
     1
 44
1.0
1001
ACAD
1000
MTEXTBEGIN
1070
    73
1070
     1
1070
    44
1040
1.0
1070
    74
1070
     0
1000
MTEXTEND
  0
POINT
  5
894
330
88B
100
AcDbEntity
  8
Defpoints
 62
     0
100
AcDbPoint
 10
-72.68425717222626
 20
11.69279933393705
 30
0.0
  0
POINT
  5
895
330
88B
100
AcDbEntity
  8
Defpoints
 62
     0
100
AcDbPoint
 10
-72.68425717222626
 20
7.237786072478634
 30
0.0
  0
POINT
  5
896
330
88B
100
AcDbEntity
  8
Defpoints
 62
     0
100
AcDbPoint
 10
-74.18400063274022
 20
7.237786072478635
 30
0.0
  0
ENDBLK
  5
897
330
88B
100
AcDbEntity
  8
0
100
AcDbBlockEnd
  0
BLOCK
  5
899
330
898
100
AcDbEntity
  8
0
100
AcDbBlockBegin
  2
*D18
 70
     1
 10
0.0
 20
0.0
 30
0.0
  3
*D18
  1

  0
LINE
  5
89A
330
898
100
AcDbEntity
  8
0
 62
     0
370
    -2
100
AcDbLine
 10
-72.98425717222627
 20
7.237786072478634
 30
0.0
 11
-74.7240006327402
 21
7.237786072478635
 31
0.0
  0
LINE
  5
89B
330
898
100
AcDbEntity
  8
0
 62
     0
370
    -2
100
AcDbLine
 10
-71.63425717222627
 20
3.155846695905443
 30
0.0
 11
-74.7240006327402
 21
3.155846695905446
 31
0.0
  0
LINE
  5
89C
330
898
100
AcDbEntity
  8
0
 62
     0
370
    -2
100
AcDbLine
 10
-74.18400063274022
 20
7.237786072478635
 30
0.0
 11
-74.18400063274022
 21
6.166816384192038
 31
0.0
  0
LINE
  5
89D
330
898
100
AcDbEntity
  8
0
 62
     0
370
    -2
100
AcDbLine
 10
-74.18400063274022
 20
3.155846695905446
 30
0.0
 11
-74.18400063274022
 21
4.226816384192041
 31
0.0
  0
INSERT
  5
89E
330
898
100
AcDbEntity
  8
0
 62
     0
370
    -2
100
AcDbBlockReference
  2
_ArchTick
 10
-74.18400063274022
 20
7.237786072478635
 30
0.0
 41
0.6000000000000001
 42
0.6000000000000001
 43
0.6000000000000001
 50
90.0
  0
INSERT
  5
89F
330
898
100
AcDbEntity
  8
0
 62
     0
370
    -2
100
AcDbBlockReference
  2
_ArchTick
 10
-74.18400063274022
 20
3.155846695905446
 30
0.0
 41
0.6000000000000001
 42
0.6000000000000001
 43
0.6000000000000001
 50
270.0
  0
MTEXT
  5
8A0
330
898
100
AcDbEntity
  8
0
 62
     0
100
AcDbMText
 10
-74.18400063274022
 20
5.196816384192027
 30
0.0
 40
0.6000000000000001
 41
0.0
 71
     5
 72
     1
  1
\A1;4{\H1.000000x;\S1/8;}"
 73
     1
 44
1.0
1001
ACAD
1000
MTEXTBEGIN
1070
    73
1070
     1
1070
    44
1040
1.0
1070
    74
1070
     0
1000
MTEXTEND
  0
POINT
  5
8A1
330
898
100
AcDbEntity
  8
Defpoints
 62
     0
100
AcDbPoint
 10
-72.68425717222626
 20
7.237786072478634
 30
0.0
  0
POINT
  5
8A2
330
898
100
AcDbEntity
  8
Defpoints
 62
     0
100
AcDbPoint
 10
-71.33425717222627
 20
3.155846695905443
 30
0.0
  0
POINT
  5
8A3
330
898
100
AcDbEntity
  8
Defpoints
 62
     0
100
AcDbPoint
 10
-74.18400063274022
 20
3.155846695905446
 30
0.0
  0
ENDBLK
  5
8A4
330
898
100
AcDbEntity
  8
0
100
AcDbBlockEnd
  0
BLOCK
  5
B78
330
8A5
100
AcDbEntity
  8
0
100
AcDbBlockBegin
  2
A$C6E2D559E
 70
     0
 10
0.0
 20
0.0
 30
0.0
  3
A$C6E2D559E
  1

  0
SPLINE
  5
8A6
330
8A5
100
AcDbEntity
  8
0
100
AcDbSpline
210
-0.0000000000000082
220
-0.0000000000000004
230
1.0
 70
     8
 71
     3
 72
    20
 73
    16
 74
     0
 42
0.0000000001
 43
0.0000000001
 40
-16.16787966601419
 40
-16.16787966601419
 40
-16.16787966601419
 40
-16.16787966601419
 40
-13.43247817605053
 40
-13.43247817605053
 40
-11.7275672767087
 40
-11.7275672767087
 40
-8.306561962228467
 40
-8.306561962228467
 40
-3.858943835795483
 40
-3.858943835795483
 40
-1.448243910495663
 40
-1.448243910495663
 40
-0.6805570078380021
 40
-0.6805570078380021
 40
0.0
 40
0.0
 40
0.0
 40
0.0
 10
3.849743360145595
 20
12.85693573504717
 30
-0.0000000000000107
 10
3.788866473961403
 20
14.83334858802862
 30
0.0
 10
3.749038514751958
 20
15.55067815444821
 30
0.0
 10
3.693572955078705
 20
16.76360209376338
 30
0.0
 10
3.664255437951482
 20
17.29691473589429
 30
0.0
 10
3.584886136572377
 20
18.90084172871079
 30
0.0
 10
3.541860283871528
 20
19.97176503761633
 30
0.0
 10
3.424064341464685
 20
22.43409665509515
 30
0.0
 10
3.360798298223328
 20
23.7101377291182
 30
0.0
 10
3.343868321059574
 20
25.75581465146647
 30
0.0
 10
3.3533462015736
 20
26.53141525848605
 30
0.0
 10
3.397080146637563
 20
27.43703269090108
 30
0.0
 10
3.433255260901745
 20
27.70917132575624
 30
0.0
 10
3.519970856673495
 20
28.08447415719938
 30
0.0
 10
3.582670191176132
 20
28.2952691336649
 30
0.0
 10
3.755991433019842
 20
28.71560659940218
 30
0.0
  0
SPLINE
  5
8A7
330
8A5
100
AcDbEntity
  8
0
100
AcDbSpline
210
0.0000000000000082
220
-0.0000000000000004
230
1.0
 70
     8
 71
     3
 72
    20
 73
    16
 74
     0
 42
0.0000000001
 43
0.0000000001
 40
-16.16787966601419
 40
-16.16787966601419
 40
-16.16787966601419
 40
-16.16787966601419
 40
-13.43247817605053
 40
-13.43247817605053
 40
-11.7275672767087
 40
-11.7275672767087
 40
-8.306561962228467
 40
-8.306561962228467
 40
-3.858943835795483
 40
-3.858943835795483
 40
-1.448243910495663
 40
-1.448243910495663
 40
-0.6805570078380021
 40
-0.6805570078380021
 40
0.0
 40
0.0
 40
0.0
 40
0.0
 10
6.099743360145595
 20
12.85693573504717
 30
-0.0000000000000107
 10
6.160620246329784
 20
14.83334858802862
 30
0.0
 10
6.200448205539231
 20
15.55067815444821
 30
0.0
 10
6.255913765212482
 20
16.76360209376338
 30
0.0
 10
6.285231282339707
 20
17.29691473589429
 30
0.0
 10
6.364600583718811
 20
18.90084172871079
 30
0.0
 10
6.40762643641966
 20
19.97176503761633
 30
0.0
 10
6.525422378826505
 20
22.43409665509515
 30
0.0
 10
6.58868842206786
 20
23.7101377291182
 30
0.0
 10
6.605618399231616
 20
25.75581465146647
 30
0.0
 10
6.596140518717588
 20
26.53141525848605
 30
0.0
 10
6.552406573653627
 20
27.43703269090108
 30
0.0
 10
6.516231459389445
 20
27.70917132575624
 30
0.0
 10
6.429515863617695
 20
28.08447415719938
 30
0.0
 10
6.366816529115053
 20
28.2952691336649
 30
0.0
 10
6.193495287271346
 20
28.71560659940218
 30
0.0
  0
ARC
  5
8A8
330
8A5
100
AcDbEntity
  8
0
100
AcDbCircle
 10
6.137916569981553
 20
9.995510640886957
 30
-0.0000000000000036
 40
0.3922849602297906
100
AcDbArc
 50
315.4715459999994
 51
57.31753499999988
  0
ARC
  5
8A9
330
8A5
100
AcDbEntity
  8
0
100
AcDbCircle
 10
3.811569959711206
 20
9.995510640886957
 30
-0.0000000000000036
 40
0.3922849602297906
100
AcDbArc
 50
122.6824649999991
 51
224.5284540000005
  0
LINE
  5
8AA
330
8A5
100
AcDbEntity
  8
0
  6
Continuous
100
AcDbLine
 10
3.531909117753881
 20
9.720415560054512
 30
-0.0000000000000036
 11
6.417577411938879
 21
9.720415560054512
 31
-0.0000000000000036
  0
LINE
  5
8AB
330
8A5
100
AcDbEntity
  8
0
100
AcDbLine
 10
3.531916261277216
 20
3.562087130833653
 30
-0.0000000000000036
 11
6.417570459013972
 21
3.562087130833653
 31
-0.0000000000000036
  0
ARC
  5
8AC
330
8A5
100
AcDbEntity
  8
0
100
AcDbCircle
 10
4.974743360145593
 20
6.658604715384035
 30
-0.0000000000000036
 40
2.691660087534159
100
AcDbArc
 50
49.44660611070942
 51
130.5533938892905
  0
LINE
  5
8AD
330
8A5
100
AcDbEntity
  8
0
100
AcDbLine
 10
3.406205848323025
 20
9.350264802918252
 30
-0.0000000000000036
 11
6.543280871968164
 21
9.350264802918223
 31
-0.0000000000000036
  0
LINE
  5
8AE
330
8A5
100
AcDbEntity
  8
0
  6
Continuous
100
AcDbLine
 10
6.543278695552317
 20
9.600313751526279
 30
-0.0000000000000036
 11
3.406207834140415
 21
9.600313751526279
 31
-0.0000000000000036
  0
ARC
  5
8AF
330
8A5
100
AcDbEntity
  8
0
100
AcDbCircle
 10
4.974743360145581
 20
6.623853620682872
 30
-0.0000000000000036
 40
2.69166008753418
100
AcDbArc
 50
229.4466061107104
 51
310.5533938892896
  0
LINE
  5
8B0
330
8A5
100
AcDbEntity
  8
0
100
AcDbLine
 10
3.406205848323025
 20
3.932193533148712
 30
-0.0000000000000036
 11
6.543280871968164
 21
3.932193533148712
 31
-0.0000000000000036
  0
LINE
  5
8B1
330
8A5
100
AcDbEntity
  8
0
  6
Continuous
100
AcDbLine
 10
7.449743360145587
 20
8.868772417043494
 30
-0.0000000000000036
 11
6.543278886150772
 21
9.350309932883654
 31
-0.0000000000000036
  0
LINE
  5
8B2
330
8A5
100
AcDbEntity
  8
0
100
AcDbLine
 10
3.849743360145595
 20
0.4255697790118589
 30
-0.0000000000000036
 11
6.099743360145622
 21
0.4255697790118589
 31
-0.0000000000000036
  0
LINE
  5
8B3
330
8A5
100
AcDbEntity
  8
0
100
AcDbLine
 10
6.417577868908907
 20
9.720416034868355
 30
-0.0000000000000036
 11
6.543278695552317
 21
9.600313751526279
 31
-0.0000000000000036
  0
LINE
  5
8B4
330
8A5
100
AcDbEntity
  8
0
100
AcDbLine
 10
6.543278695552317
 20
9.600313751526279
 30
-0.0000000000000036
 11
6.543278695552317
 21
9.350309932883654
 31
-0.0000000000000036
  0
LINE
  5
8B5
330
8A5
100
AcDbEntity
  8
0
100
AcDbLine
 10
3.406207834140415
 20
9.600313751526279
 30
-0.0000000000000036
 11
3.406207834140415
 21
9.350309932883654
 31
-0.0000000000000036
  0
LINE
  5
8B6
330
8A5
100
AcDbEntity
  8
0
  6
Continuous
100
AcDbLine
 10
2.4997433601456
 20
8.868772417043494
 30
-0.0000000000000036
 11
3.406207834140415
 21
9.350309932883654
 31
-0.0000000000000036
  0
LINE
  5
8B7
330
8A5
100
AcDbEntity
  8
0
100
AcDbLine
 10
3.531908660783853
 20
9.720416034868355
 30
-0.0000000000000036
 11
3.406207834140415
 21
9.600313751526279
 31
-0.0000000000000036
  0
ARC
  5
8B8
330
8A5
100
AcDbEntity
  8
0
100
AcDbCircle
 10
2.417117520188666
 20
11.98128674122368
 30
-0.0000000000000036
 40
1.432625982790688
100
AcDbArc
 50
313.996918
 51
0.0261539999989494
  0
ARC
  5
8B9
330
8A5
100
AcDbEntity
  8
0
100
AcDbCircle
 10
3.99974161306258
 20
12.41943752817835
 30
-0.0000000000000036
 40
0.4624978735440002
100
AcDbArc
 50
108.9245610000001
 51
251.0755330000001
  0
LINE
  5
8BA
330
8A5
100
AcDbEntity
  8
0
  6
Continuous
100
AcDbLine
 10
3.412247715342416
 20
10.95068832221643
 30
-0.0000000000000036
 11
6.537238814350329
 21
10.95068832221643
 31
-0.0000000000000036
  0
ARC
  5
8BB
330
8A5
100
AcDbEntity
  8
0
100
AcDbCircle
 10
4.350761376484056
 20
10.89161229351624
 30
-0.0000000000000036
 40
0.9403715738439704
100
AcDbArc
 50
176.3982929999995
 51
216.9996569999991
  0
LINE
  5
8BC
330
8A5
100
AcDbEntity
  8
0
  6
Continuous
100
AcDbLine
 10
3.849742939670788
 20
12.85693573504717
 30
-0.0000000000000036
 11
6.099743590021972
 21
12.85693573504717
 31
-0.0000000000000036
  0
LINE
  5
8BD
330
8A5
100
AcDbEntity
  8
0
  6
Continuous
100
AcDbLine
 10
6.099743026713397
 20
11.98128674122368
 30
-0.0000000000000036
 11
3.849743353722658
 21
11.98194069687228
 31
-0.0000000000000036
  0
LINE
  5
8BE
330
8A5
100
AcDbEntity
  8
0
  6
Continuous
100
AcDbLine
 10
6.349742672632785
 20
10.32568704897253
 30
-0.0000000000000036
 11
3.599743857059991
 21
10.32568704897253
 31
-0.0000000000000036
  0
ARC
  5
8BF
330
8A5
100
AcDbEntity
  8
0
100
AcDbCircle
 10
5.949744916630178
 20
12.41943752817835
 30
-0.0000000000000036
 40
0.4624978735440002
100
AcDbArc
 50
288.924467
 51
71.07543899999986
  0
ARC
  5
8C0
330
8A5
100
AcDbEntity
  8
0
100
AcDbCircle
 10
7.532369009504094
 20
11.98128674122368
 30
-0.0000000000000036
 40
1.432625982790688
100
AcDbArc
 50
179.9738459999994
 51
226.003082
  0
ARC
  5
8C1
330
8A5
100
AcDbEntity
  8
0
100
AcDbCircle
 10
5.598725153208675
 20
10.89161229351624
 30
-0.0000000000000036
 40
0.9403715738439704
100
AcDbArc
 50
323.0003430000008
 51
3.601707000000503
  0
LINE
  5
8C2
330
8A5
100
AcDbEntity
  8
0
100
AcDbLine
 10
3.662239464611531
 20
29.5281022678648
 30
0.0
 11
3.686341826791675
 21
29.28107351309638
 31
0.0
  0
LINE
  5
8C3
330
8A5
100
AcDbEntity
  8
0
100
AcDbLine
 10
6.287247255679615
 20
29.5281022678648
 30
0.0
 11
6.263144893499472
 21
29.28107351309638
 31
0.0
  0
ARC
  5
8C4
330
8A5
100
AcDbEntity
  8
0
100
AcDbCircle
 10
3.9997433601456
 20
0.8630697790118587
 30
0.0000000000000036
 40
0.4625000000000032
100
AcDbArc
 50
108.924644416052
 51
251.075355583948
  0
ARC
  5
8C5
330
8A5
100
AcDbEntity
  8
0
100
AcDbCircle
 10
2.417193046581699
 20
1.301249191439332
 30
0.0000000000000036
 40
1.432550474675571
100
AcDbArc
 50
359.9728264610643
 51
46.00460714309599
  0
ARC
  5
8C6
330
8A5
100
AcDbEntity
  8
0
100
AcDbCircle
 10
4.350805692551489
 20
2.390876079290115
 30
0.0000000000000036
 40
0.9404184698387027
100
AcDbArc
 50
143.001088115905
 51
183.6004234161066
  0
ARC
  5
8C7
330
8A5
100
AcDbEntity
  8
0
100
AcDbCircle
 10
3.811563651516451
 20
3.286990729922683
 30
0.0000000000000036
 40
0.3922762963292193
100
AcDbArc
 50
135.4700307345698
 51
237.3179071173907
  0
LINE
  5
8C8
330
8A5
100
AcDbEntity
  8
0
  6
Continuous
100
AcDbLine
 10
7.449743360145587
 20
4.413759155585103
 30
0.0
 11
6.543280871968164
 21
3.932193533148712
 31
0.0
  0
LINE
  5
8C9
330
8A5
100
AcDbEntity
  8
0
100
AcDbLine
 10
6.724743360145595
 20
9.253911282382096
 30
0.0000000000000035
 11
6.724743360145595
 21
4.028596966503902
 31
0.0
  0
LINE
  5
8CA
330
8A5
100
AcDbEntity
  8
0
100
AcDbLine
 10
3.849743360145595
 20
1.300569779011856
 30
0.0000000000000036
 11
6.099743199033893
 21
1.301249191439332
 31
0.0000000000000036
  0
LINE
  5
8CB
330
8A5
100
AcDbEntity
  8
0
100
AcDbLine
 10
6.349743360145595
 20
2.956819779011857
 30
0.0000000000000036
 11
3.599743360145595
 21
2.956819779011857
 31
0.0000000000000036
  0
LINE
  5
8CC
330
8A5
100
AcDbEntity
  8
0
100
AcDbLine
 10
4.974743360145593
 20
0.3318197790118589
 30
0.0
 11
3.849743360145595
 21
0.3318197790118589
 31
0.0
  0
ARC
  5
8CD
330
8A5
100
AcDbEntity
  8
0
100
AcDbCircle
 10
5.598681027739701
 20
2.390876079290115
 30
0.0000000000000036
 40
0.9404184698387027
100
AcDbArc
 50
356.3995765838933
 51
36.99891188409497
  0
LINE
  5
8CE
330
8A5
100
AcDbEntity
  8
0
100
AcDbLine
 10
6.099743360145595
 20
0.4255697790118589
 30
0.0000000000000036
 11
6.099743360145595
 21
0.3318197790118589
 31
0.0
  0
ARC
  5
8CF
330
8A5
100
AcDbEntity
  8
0
100
AcDbCircle
 10
5.949743360145587
 20
0.8630697790118587
 30
0.0000000000000036
 40
0.4625000000000032
100
AcDbArc
 50
288.924644416052
 51
71.07535558394801
  0
ARC
  5
8D0
330
8A5
100
AcDbEntity
  8
0
100
AcDbCircle
 10
7.53229367370946
 20
1.301249191439332
 30
0.0000000000000036
 40
1.432550474675571
100
AcDbArc
 50
133.9953928569031
 51
180.0271735389357
  0
ARC
  5
8D1
330
8A5
100
AcDbEntity
  8
0
100
AcDbCircle
 10
6.137923068774736
 20
3.286990729922683
 30
0.0000000000000036
 40
0.3922762963292193
100
AcDbArc
 50
302.6820928826094
 51
44.52996926543014
  0
LINE
  5
8D2
330
8A5
100
AcDbEntity
  8
0
100
AcDbLine
 10
6.543280871968164
 20
3.682193533148712
 30
0.0
 11
6.417570459013972
 21
3.562087130833653
 31
0.0
  0
LINE
  5
8D3
330
8A5
100
AcDbEntity
  8
0
100
AcDbLine
 10
6.543280871968164
 20
3.932193533148712
 30
0.0000000000000036
 11
6.543280871968164
 21
3.682193533148712
 31
0.0
  0
LINE
  5
8D4
330
8A5
100
AcDbEntity
  8
0
100
AcDbLine
 10
3.849743360145595
 20
0.3318197790118589
 30
0.0
 11
3.849743360145595
 21
0.4255697790118589
 31
0.0
  0
LINE
  5
8D5
330
8A5
100
AcDbEntity
  8
0
100
AcDbLine
 10
3.224743360145595
 20
4.028596966503902
 30
0.0000000000000036
 11
3.224743360145595
 21
9.25391128238207
 31
0.0000000000000036
  0
LINE
  5
8D6
330
8A5
100
AcDbEntity
  8
0
100
AcDbLine
 10
3.406205848323025
 20
3.682193533148712
 30
0.0
 11
3.406205848323025
 21
3.932193533148712
 31
0.0
  0
LINE
  5
8D7
330
8A5
100
AcDbEntity
  8
0
  6
Continuous
100
AcDbLine
 10
2.4997433601456
 20
4.413759155585045
 30
0.0
 11
3.406205848323025
 21
3.932193533148712
 31
0.0
  0
LINE
  5
8D8
330
8A5
100
AcDbEntity
  8
0
100
AcDbLine
 10
3.531916261277216
 20
3.562087130833653
 30
0.0000000000000036
 11
3.406205848323025
 21
3.682193533148712
 31
0.0
  0
LINE
  5
8D9
330
8A5
100
AcDbEntity
  8
0
  6
Continuous
100
AcDbLine
 10
3.686341826791675
 20
29.28107351309638
 30
0.0
 11
6.263144893499472
 21
29.28107351309638
 31
0.0
  0
LINE
  5
8DA
330
8A5
100
AcDbEntity
  8
0
  6
Continuous
100
AcDbLine
 10
6.193508120038115
 20
28.88945904212429
 30
0.0
 11
3.755991433019842
 21
28.8894782686362
 31
0.0
  0
LINE
  5
8DB
330
8A5
100
AcDbEntity
  8
0
  6
Continuous
100
AcDbLine
 10
3.755991433019842
 20
28.71560659940218
 30
0.0
 11
6.193495287271304
 21
28.71560659940218
 31
0.0
  0
LINE
  5
8DC
330
8A5
100
AcDbEntity
  8
0
100
AcDbLine
 10
6.193495287271304
 20
28.8894782686362
 30
0.0
 11
6.193495287271304
 21
28.71560659940218
 31
0.0
  0
LINE
  5
8DD
330
8A5
100
AcDbEntity
  8
0
100
AcDbLine
 10
6.263108120038125
 20
29.28105904212428
 30
0.0
 11
6.260308120038117
 21
29.27975904212429
 31
0.0
  0
LINE
  5
8DE
330
8A5
100
AcDbEntity
  8
0
100
AcDbLine
 10
6.260308120038117
 20
29.27975904212429
 30
0.0
 11
6.257508120038122
 21
29.2784590421243
 31
0.0
  0
LINE
  5
8DF
330
8A5
100
AcDbEntity
  8
0
100
AcDbLine
 10
6.257508120038122
 20
29.2784590421243
 30
0.0
 11
6.254608120038112
 21
29.27715904212428
 31
0.0
  0
LINE
  5
8E0
330
8A5
100
AcDbEntity
  8
0
100
AcDbLine
 10
6.254608120038112
 20
29.27715904212428
 30
0.0
 11
6.251808120038119
 21
29.2758590421243
 31
0.0
  0
LINE
  5
8E1
330
8A5
100
AcDbEntity
  8
0
100
AcDbLine
 10
6.251808120038119
 20
29.2758590421243
 30
0.0
 11
6.249008120038125
 21
29.27455904212431
 31
0.0
  0
LINE
  5
8E2
330
8A5
100
AcDbEntity
  8
0
100
AcDbLine
 10
6.249008120038125
 20
29.27455904212431
 30
0.0
 11
6.246108120038113
 21
29.27325904212429
 31
0.0
  0
LINE
  5
8E3
330
8A5
100
AcDbEntity
  8
0
100
AcDbLine
 10
6.246108120038113
 20
29.27325904212429
 30
0.0
 11
6.243308120038107
 21
29.27195904212428
 31
0.0
  0
LINE
  5
8E4
330
8A5
100
AcDbEntity
  8
0
100
AcDbLine
 10
6.243308120038107
 20
29.27195904212428
 30
0.0
 11
6.240508120038112
 21
29.2706590421243
 31
0.0
  0
LINE
  5
8E5
330
8A5
100
AcDbEntity
  8
0
100
AcDbLine
 10
6.240508120038112
 20
29.2706590421243
 30
0.0
 11
6.237708120038119
 21
29.26935904212431
 31
0.0
  0
LINE
  5
8E6
330
8A5
100
AcDbEntity
  8
0
100
AcDbLine
 10
6.237708120038119
 20
29.26935904212431
 30
0.0
 11
6.234908120038112
 21
29.26805904212429
 31
0.0
  0
LINE
  5
8E7
330
8A5
100
AcDbEntity
  8
0
100
AcDbLine
 10
6.234908120038112
 20
29.26805904212429
 30
0.0
 11
6.232008120038114
 21
29.26675904212428
 31
0.0
  0
LINE
  5
8E8
330
8A5
100
AcDbEntity
  8
0
100
AcDbLine
 10
6.232008120038114
 20
29.26675904212428
 30
0.0
 11
6.22920812003812
 21
29.26545904212427
 31
0.0
  0
LINE
  5
8E9
330
8A5
100
AcDbEntity
  8
0
100
AcDbLine
 10
6.22920812003812
 20
29.26545904212427
 30
0.0
 11
6.226508120038117
 21
29.26415904212428
 31
0.0
  0
LINE
  5
8EA
330
8A5
100
AcDbEntity
  8
0
100
AcDbLine
 10
6.226508120038117
 20
29.26415904212428
 30
0.0
 11
6.223708120038125
 21
29.26285904212429
 31
0.0
  0
LINE
  5
8EB
330
8A5
100
AcDbEntity
  8
0
100
AcDbLine
 10
6.223708120038125
 20
29.26285904212429
 30
0.0
 11
6.220908120038115
 21
29.2614590421243
 31
0.0
  0
LINE
  5
8EC
330
8A5
100
AcDbEntity
  8
0
100
AcDbLine
 10
6.220908120038115
 20
29.2614590421243
 30
0.0
 11
6.218108120038124
 21
29.26015904212429
 31
0.0
  0
LINE
  5
8ED
330
8A5
100
AcDbEntity
  8
0
100
AcDbLine
 10
6.218108120038124
 20
29.26015904212429
 30
0.0
 11
6.215308120038114
 21
29.25885904212427
 31
0.0
  0
LINE
  5
8EE
330
8A5
100
AcDbEntity
  8
0
100
AcDbLine
 10
6.215308120038114
 20
29.25885904212427
 30
0.0
 11
6.212608120038125
 21
29.25745904212428
 31
0.0
  0
LINE
  5
8EF
330
8A5
100
AcDbEntity
  8
0
100
AcDbLine
 10
6.212608120038125
 20
29.25745904212428
 30
0.0
 11
6.209808120038116
 21
29.2561590421243
 31
0.0
  0
LINE
  5
8F0
330
8A5
100
AcDbEntity
  8
0
100
AcDbLine
 10
6.209808120038116
 20
29.2561590421243
 30
0.0
 11
6.207108120038127
 21
29.25475904212428
 31
0.0
  0
LINE
  5
8F1
330
8A5
100
AcDbEntity
  8
0
100
AcDbLine
 10
6.207108120038127
 20
29.25475904212428
 30
0.0
 11
6.204408120038124
 21
29.25345904212426
 31
0.0
  0
LINE
  5
8F2
330
8A5
100
AcDbEntity
  8
0
100
AcDbLine
 10
6.204408120038124
 20
29.25345904212426
 30
0.0
 11
6.201708120038119
 21
29.25205904212428
 31
0.0
  0
LINE
  5
8F3
330
8A5
100
AcDbEntity
  8
0
100
AcDbLine
 10
6.201708120038119
 20
29.25205904212428
 30
0.0
 11
6.199008120038113
 21
29.25065904212429
 31
0.0
  0
LINE
  5
8F4
330
8A5
100
AcDbEntity
  8
0
100
AcDbLine
 10
6.199008120038113
 20
29.25065904212429
 30
0.0
 11
6.196308120038125
 21
29.24935904212427
 31
0.0
  0
LINE
  5
8F5
330
8A5
100
AcDbEntity
  8
0
100
AcDbLine
 10
6.196308120038125
 20
29.24935904212427
 30
0.0
 11
6.193608120038121
 21
29.24795904212428
 31
0.0
  0
LINE
  5
8F6
330
8A5
100
AcDbEntity
  8
0
100
AcDbLine
 10
6.193608120038121
 20
29.24795904212428
 30
0.0
 11
6.190908120038114
 21
29.24655904212429
 31
0.0
  0
LINE
  5
8F7
330
8A5
100
AcDbEntity
  8
0
100
AcDbLine
 10
6.190908120038114
 20
29.24655904212429
 30
0.0
 11
6.188308120038113
 21
29.24515904212427
 31
0.0
  0
LINE
  5
8F8
330
8A5
100
AcDbEntity
  8
0
100
AcDbLine
 10
6.188308120038113
 20
29.24515904212427
 30
0.0
 11
6.185708120038127
 21
29.24375904212431
 31
0.0
  0
LINE
  5
8F9
330
8A5
100
AcDbEntity
  8
0
100
AcDbLine
 10
6.185708120038127
 20
29.24375904212431
 30
0.0
 11
6.183008120038124
 21
29.24235904212427
 31
0.0
  0
LINE
  5
8FA
330
8A5
100
AcDbEntity
  8
0
100
AcDbLine
 10
6.183008120038124
 20
29.24235904212427
 30
0.0
 11
6.18040812003812
 21
29.24085904212427
 31
0.0
  0
LINE
  5
8FB
330
8A5
100
AcDbEntity
  8
0
100
AcDbLine
 10
6.18040812003812
 20
29.24085904212427
 30
0.0
 11
6.177908120038125
 21
29.23945904212431
 31
0.0
  0
LINE
  5
8FC
330
8A5
100
AcDbEntity
  8
0
100
AcDbLine
 10
6.177908120038125
 20
29.23945904212431
 30
0.0
 11
6.175308120038124
 21
29.23795904212429
 31
0.0
  0
LINE
  5
8FD
330
8A5
100
AcDbEntity
  8
0
100
AcDbLine
 10
6.175308120038124
 20
29.23795904212429
 30
0.0
 11
6.17270812003812
 21
29.23655904212427
 31
0.0
  0
LINE
  5
8FE
330
8A5
100
AcDbEntity
  8
0
100
AcDbLine
 10
6.17270812003812
 20
29.23655904212427
 30
0.0
 11
6.170208120038125
 21
29.23505904212428
 31
0.0
  0
LINE
  5
8FF
330
8A5
100
AcDbEntity
  8
0
100
AcDbLine
 10
6.170208120038125
 20
29.23505904212428
 30
0.0
 11
6.167708120038128
 21
29.23355904212428
 31
0.0
  0
LINE
  5
900
330
8A5
100
AcDbEntity
  8
0
100
AcDbLine
 10
6.167708120038128
 20
29.23355904212428
 30
0.0
 11
6.165208120038116
 21
29.23205904212429
 31
0.0
  0
LINE
  5
901
330
8A5
100
AcDbEntity
  8
0
100
AcDbLine
 10
6.165208120038116
 20
29.23205904212429
 30
0.0
 11
6.162708120038117
 21
29.23055904212427
 31
0.0
  0
LINE
  5
902
330
8A5
100
AcDbEntity
  8
0
100
AcDbLine
 10
6.162708120038117
 20
29.23055904212427
 30
0.0
 11
6.160208120038119
 21
29.22905904212428
 31
0.0
  0
LINE
  5
903
330
8A5
100
AcDbEntity
  8
0
100
AcDbLine
 10
6.160208120038119
 20
29.22905904212428
 30
0.0
 11
6.157808120038125
 21
29.22755904212428
 31
0.0
  0
LINE
  5
904
330
8A5
100
AcDbEntity
  8
0
100
AcDbLine
 10
6.157808120038125
 20
29.22755904212428
 30
0.0
 11
6.155408120038115
 21
29.22605904212426
 31
0.0
  0
LINE
  5
905
330
8A5
100
AcDbEntity
  8
0
100
AcDbLine
 10
6.155408120038115
 20
29.22605904212426
 30
0.0
 11
6.153008120038122
 21
29.22445904212427
 31
0.0
  0
LINE
  5
906
330
8A5
100
AcDbEntity
  8
0
100
AcDbLine
 10
6.153008120038122
 20
29.22445904212427
 30
0.0
 11
6.150608120038111
 21
29.22295904212428
 31
0.0
  0
LINE
  5
907
330
8A5
100
AcDbEntity
  8
0
100
AcDbLine
 10
6.150608120038111
 20
29.22295904212428
 30
0.0
 11
6.148308120038107
 21
29.22135904212428
 31
0.0
  0
LINE
  5
908
330
8A5
100
AcDbEntity
  8
0
100
AcDbLine
 10
6.148308120038107
 20
29.22135904212428
 30
0.0
 11
6.145908120038112
 21
29.21975904212431
 31
0.0
  0
LINE
  5
909
330
8A5
100
AcDbEntity
  8
0
100
AcDbLine
 10
6.145908120038112
 20
29.21975904212431
 30
0.0
 11
6.143608120038122
 21
29.21815904212428
 31
0.0
  0
LINE
  5
90A
330
8A5
100
AcDbEntity
  8
0
100
AcDbLine
 10
6.143608120038122
 20
29.21815904212428
 30
0.0
 11
6.141308120038115
 21
29.21655904212429
 31
0.0
  0
LINE
  5
90B
330
8A5
100
AcDbEntity
  8
0
100
AcDbLine
 10
6.141308120038115
 20
29.21655904212429
 30
0.0
 11
6.139108120038114
 21
29.21495904212426
 31
0.0
  0
LINE
  5
90C
330
8A5
100
AcDbEntity
  8
0
100
AcDbLine
 10
6.139108120038114
 20
29.21495904212426
 30
0.0
 11
6.136808120038125
 21
29.21325904212429
 31
0.0
  0
LINE
  5
90D
330
8A5
100
AcDbEntity
  8
0
100
AcDbLine
 10
6.136808120038125
 20
29.21325904212429
 30
0.0
 11
6.134608120038107
 21
29.21165904212429
 31
0.0
  0
LINE
  5
90E
330
8A5
100
AcDbEntity
  8
0
100
AcDbLine
 10
6.134608120038107
 20
29.21165904212429
 30
0.0
 11
6.132508120038122
 21
29.2099590421243
 31
0.0
  0
LINE
  5
90F
330
8A5
100
AcDbEntity
  8
0
100
AcDbLine
 10
6.132508120038122
 20
29.2099590421243
 30
0.0
 11
6.130308120038107
 21
29.20825904212427
 31
0.0
  0
LINE
  5
910
330
8A5
100
AcDbEntity
  8
0
100
AcDbLine
 10
6.130308120038107
 20
29.20825904212427
 30
0.0
 11
6.128208120038124
 21
29.20655904212427
 31
0.0
  0
LINE
  5
911
330
8A5
100
AcDbEntity
  8
0
100
AcDbLine
 10
6.128208120038124
 20
29.20655904212427
 30
0.0
 11
6.126108120038125
 21
29.20485904212427
 31
0.0
  0
LINE
  5
912
330
8A5
100
AcDbEntity
  8
0
100
AcDbLine
 10
6.126108120038125
 20
29.20485904212427
 30
0.0
 11
6.124008120038125
 21
29.2030590421243
 31
0.0
  0
LINE
  5
913
330
8A5
100
AcDbEntity
  8
0
100
AcDbLine
 10
6.124008120038125
 20
29.2030590421243
 30
0.0
 11
6.122008120038117
 21
29.20135904212429
 31
0.0
  0
LINE
  5
914
330
8A5
100
AcDbEntity
  8
0
100
AcDbLine
 10
6.122008120038117
 20
29.20135904212429
 30
0.0
 11
6.120008120038122
 21
29.19955904212427
 31
0.0
  0
LINE
  5
915
330
8A5
100
AcDbEntity
  8
0
100
AcDbLine
 10
6.120008120038122
 20
29.19955904212427
 30
0.0
 11
6.118008120038125
 21
29.19775904212429
 31
0.0
  0
LINE
  5
916
330
8A5
100
AcDbEntity
  8
0
100
AcDbLine
 10
6.118008120038125
 20
29.19775904212429
 30
0.0
 11
6.116008120038117
 21
29.19595904212429
 31
0.0
  0
LINE
  5
917
330
8A5
100
AcDbEntity
  8
0
100
AcDbLine
 10
6.116008120038117
 20
29.19595904212429
 30
0.0
 11
6.114108120038109
 21
29.19415904212428
 31
0.0
  0
LINE
  5
918
330
8A5
100
AcDbEntity
  8
0
100
AcDbLine
 10
6.114108120038109
 20
29.19415904212428
 30
0.0
 11
6.112208120038117
 21
29.19225904212428
 31
0.0
  0
LINE
  5
919
330
8A5
100
AcDbEntity
  8
0
100
AcDbLine
 10
6.112208120038117
 20
29.19225904212428
 30
0.0
 11
6.110408120038115
 21
29.1904590421243
 31
0.0
  0
LINE
  5
91A
330
8A5
100
AcDbEntity
  8
0
100
AcDbLine
 10
6.110408120038115
 20
29.1904590421243
 30
0.0
 11
6.108608120038128
 21
29.1885590421243
 31
0.0
  0
LINE
  5
91B
330
8A5
100
AcDbEntity
  8
0
100
AcDbLine
 10
6.108608120038128
 20
29.1885590421243
 30
0.0
 11
6.106808120038124
 21
29.18665904212426
 31
0.0
  0
LINE
  5
91C
330
8A5
100
AcDbEntity
  8
0
100
AcDbLine
 10
6.106808120038124
 20
29.18665904212426
 30
0.0
 11
6.105008120038119
 21
29.18475904212428
 31
0.0
  0
LINE
  5
91D
330
8A5
100
AcDbEntity
  8
0
100
AcDbLine
 10
6.105008120038119
 20
29.18475904212428
 30
0.0
 11
6.103308120038119
 21
29.18275904212431
 31
0.0
  0
LINE
  5
91E
330
8A5
100
AcDbEntity
  8
0
100
AcDbLine
 10
6.103308120038119
 20
29.18275904212431
 30
0.0
 11
6.101608120038122
 21
29.1808590421243
 31
0.0
  0
LINE
  5
91F
330
8A5
100
AcDbEntity
  8
0
100
AcDbLine
 10
6.101608120038122
 20
29.1808590421243
 30
0.0
 11
6.09990812003812
 21
29.17885904212429
 31
0.0
  0
LINE
  5
920
330
8A5
100
AcDbEntity
  8
0
100
AcDbLine
 10
6.09990812003812
 20
29.17885904212429
 30
0.0
 11
6.098308120038125
 21
29.17685904212428
 31
0.0
  0
LINE
  5
921
330
8A5
100
AcDbEntity
  8
0
100
AcDbLine
 10
6.098308120038125
 20
29.17685904212428
 30
0.0
 11
6.096808120038119
 21
29.1748590421243
 31
0.0
  0
LINE
  5
922
330
8A5
100
AcDbEntity
  8
0
100
AcDbLine
 10
6.096808120038119
 20
29.1748590421243
 30
0.0
 11
6.095208120038107
 21
29.17275904212429
 31
0.0
  0
LINE
  5
923
330
8A5
100
AcDbEntity
  8
0
100
AcDbLine
 10
6.095208120038107
 20
29.17275904212429
 30
0.0
 11
6.093708120038114
 21
29.17065904212427
 31
0.0
  0
LINE
  5
924
330
8A5
100
AcDbEntity
  8
0
100
AcDbLine
 10
6.093708120038114
 20
29.17065904212427
 30
0.0
 11
6.092208120038121
 21
29.16865904212429
 31
0.0
  0
LINE
  5
925
330
8A5
100
AcDbEntity
  8
0
100
AcDbLine
 10
6.092208120038121
 20
29.16865904212429
 30
0.0
 11
6.090808120038119
 21
29.1664590421243
 31
0.0
  0
LINE
  5
926
330
8A5
100
AcDbEntity
  8
0
100
AcDbLine
 10
6.090808120038119
 20
29.1664590421243
 30
0.0
 11
6.089408120038115
 21
29.16435904212429
 31
0.0
  0
LINE
  5
927
330
8A5
100
AcDbEntity
  8
0
100
AcDbLine
 10
6.089408120038115
 20
29.16435904212429
 30
0.0
 11
6.088108120038111
 21
29.16225904212428
 31
0.0
  0
LINE
  5
928
330
8A5
100
AcDbEntity
  8
0
100
AcDbLine
 10
6.088108120038111
 20
29.16225904212428
 30
0.0
 11
6.086808120038112
 21
29.16005904212429
 31
0.0
  0
LINE
  5
929
330
8A5
100
AcDbEntity
  8
0
100
AcDbLine
 10
6.086808120038112
 20
29.16005904212429
 30
0.0
 11
6.085508120038127
 21
29.15785904212427
 31
0.0
  0
LINE
  5
92A
330
8A5
100
AcDbEntity
  8
0
100
AcDbLine
 10
6.085508120038127
 20
29.15785904212427
 30
0.0
 11
6.084308120038116
 21
29.15555904212428
 31
0.0
  0
LINE
  5
92B
330
8A5
100
AcDbEntity
  8
0
100
AcDbLine
 10
6.084308120038116
 20
29.15555904212428
 30
0.0
 11
6.083108120038119
 21
29.1533590421243
 31
0.0
  0
LINE
  5
92C
330
8A5
100
AcDbEntity
  8
0
100
AcDbLine
 10
6.083108120038119
 20
29.1533590421243
 30
0.0
 11
6.082008120038125
 21
29.1510590421243
 31
0.0
  0
LINE
  5
92D
330
8A5
100
AcDbEntity
  8
0
100
AcDbLine
 10
6.082008120038125
 20
29.1510590421243
 30
0.0
 11
6.080908120038117
 21
29.14875904212428
 31
0.0
  0
LINE
  5
92E
330
8A5
100
AcDbEntity
  8
0
100
AcDbLine
 10
6.080908120038117
 20
29.14875904212428
 30
0.0
 11
6.079808120038109
 21
29.14645904212429
 31
0.0
  0
LINE
  5
92F
330
8A5
100
AcDbEntity
  8
0
100
AcDbLine
 10
6.079808120038109
 20
29.14645904212429
 30
0.0
 11
6.078808120038115
 21
29.14405904212427
 31
0.0
  0
LINE
  5
930
330
8A5
100
AcDbEntity
  8
0
100
AcDbLine
 10
6.078808120038115
 20
29.14405904212427
 30
0.0
 11
6.077808120038127
 21
29.14175904212428
 31
0.0
  0
LINE
  5
931
330
8A5
100
AcDbEntity
  8
0
100
AcDbLine
 10
6.077808120038127
 20
29.14175904212428
 30
0.0
 11
6.076908120038125
 21
29.13935904212428
 31
0.0
  0
LINE
  5
932
330
8A5
100
AcDbEntity
  8
0
100
AcDbLine
 10
6.076908120038125
 20
29.13935904212428
 30
0.0
 11
6.076008120038125
 21
29.13685904212428
 31
0.0
  0
LINE
  5
933
330
8A5
100
AcDbEntity
  8
0
100
AcDbLine
 10
6.076008120038125
 20
29.13685904212428
 30
0.0
 11
6.075208120038125
 21
29.13445904212429
 31
0.0
  0
LINE
  5
934
330
8A5
100
AcDbEntity
  8
0
100
AcDbLine
 10
6.075208120038125
 20
29.13445904212429
 30
0.0
 11
6.074408120038112
 21
29.13195904212429
 31
0.0
  0
LINE
  5
935
330
8A5
100
AcDbEntity
  8
0
100
AcDbLine
 10
6.074408120038112
 20
29.13195904212429
 30
0.0
 11
6.073708120038119
 21
29.1294590421243
 31
0.0
  0
LINE
  5
936
330
8A5
100
AcDbEntity
  8
0
100
AcDbLine
 10
6.073708120038119
 20
29.1294590421243
 30
0.0
 11
6.073008120038124
 21
29.12685904212427
 31
0.0
  0
LINE
  5
937
330
8A5
100
AcDbEntity
  8
0
100
AcDbLine
 10
6.073008120038124
 20
29.12685904212427
 30
0.0
 11
6.072308120038115
 21
29.12435904212427
 31
0.0
  0
LINE
  5
938
330
8A5
100
AcDbEntity
  8
0
100
AcDbLine
 10
6.072308120038115
 20
29.12435904212427
 30
0.0
 11
6.071808120038127
 21
29.1217590421243
 31
0.0
  0
LINE
  5
939
330
8A5
100
AcDbEntity
  8
0
100
AcDbLine
 10
6.071808120038127
 20
29.1217590421243
 30
0.0
 11
6.071208120038107
 21
29.11905904212429
 31
0.0
  0
LINE
  5
93A
330
8A5
100
AcDbEntity
  8
0
100
AcDbLine
 10
6.071208120038107
 20
29.11905904212429
 30
0.0
 11
6.070708120038119
 21
29.11645904212426
 31
0.0
  0
LINE
  5
93B
330
8A5
100
AcDbEntity
  8
0
100
AcDbLine
 10
6.070708120038119
 20
29.11645904212426
 30
0.0
 11
6.070308120038119
 21
29.11375904212429
 31
0.0
  0
LINE
  5
93C
330
8A5
100
AcDbEntity
  8
0
100
AcDbLine
 10
6.070308120038119
 20
29.11375904212429
 30
0.0
 11
6.069908120038119
 21
29.11105904212431
 31
0.0
  0
LINE
  5
93D
330
8A5
100
AcDbEntity
  8
0
100
AcDbLine
 10
6.069908120038119
 20
29.11105904212431
 30
0.0
 11
6.069508120038107
 21
29.10835904212428
 31
0.0
  0
LINE
  5
93E
330
8A5
100
AcDbEntity
  8
0
100
AcDbLine
 10
6.069508120038107
 20
29.10835904212428
 30
0.0
 11
6.069208120038125
 21
29.10565904212428
 31
0.0
  0
LINE
  5
93F
330
8A5
100
AcDbEntity
  8
0
100
AcDbLine
 10
6.069208120038125
 20
29.10565904212428
 30
0.0
 11
6.069008120038119
 21
29.10295904212427
 31
0.0
  0
LINE
  5
940
330
8A5
100
AcDbEntity
  8
0
100
AcDbLine
 10
6.069008120038119
 20
29.10295904212427
 30
0.0
 11
6.068808120038112
 21
29.10025904212429
 31
0.0
  0
LINE
  5
941
330
8A5
100
AcDbEntity
  8
0
100
AcDbLine
 10
6.068808120038112
 20
29.10025904212429
 30
0.0
 11
6.06870812003811
 21
29.09755904212429
 31
0.0
  0
LINE
  5
942
330
8A5
100
AcDbEntity
  8
0
100
AcDbLine
 10
6.06870812003811
 20
29.09755904212429
 30
0.0
 11
6.068608120038121
 21
29.09485904212429
 31
0.0
  0
LINE
  5
943
330
8A5
100
AcDbEntity
  8
0
100
AcDbLine
 10
6.068608120038121
 20
29.09485904212429
 30
0.0
 11
6.068508120038115
 21
29.09215904212428
 31
0.0
  0
LINE
  5
944
330
8A5
100
AcDbEntity
  8
0
100
AcDbLine
 10
6.068508120038115
 20
29.09215904212428
 30
0.0
 11
6.068508120038115
 21
29.08945904212428
 31
0.0
  0
LINE
  5
945
330
8A5
100
AcDbEntity
  8
0
100
AcDbLine
 10
6.068508120038115
 20
29.08945904212428
 30
0.0
 11
6.068608120038121
 21
29.08675904212427
 31
0.0
  0
LINE
  5
946
330
8A5
100
AcDbEntity
  8
0
100
AcDbLine
 10
6.068608120038121
 20
29.08675904212427
 30
0.0
 11
6.06870812003811
 21
29.08405904212429
 31
0.0
  0
LINE
  5
947
330
8A5
100
AcDbEntity
  8
0
100
AcDbLine
 10
6.06870812003811
 20
29.08405904212429
 30
0.0
 11
6.068808120038112
 21
29.0814590421243
 31
0.0
  0
LINE
  5
948
330
8A5
100
AcDbEntity
  8
0
100
AcDbLine
 10
6.068808120038112
 20
29.0814590421243
 30
0.0
 11
6.069008120038119
 21
29.07875904212429
 31
0.0
  0
LINE
  5
949
330
8A5
100
AcDbEntity
  8
0
100
AcDbLine
 10
6.069008120038119
 20
29.07875904212429
 30
0.0
 11
6.069208120038125
 21
29.07615904212429
 31
0.0
  0
LINE
  5
94A
330
8A5
100
AcDbEntity
  8
0
100
AcDbLine
 10
6.069208120038125
 20
29.07615904212429
 30
0.0
 11
6.069508120038107
 21
29.07355904212429
 31
0.0
  0
LINE
  5
94B
330
8A5
100
AcDbEntity
  8
0
100
AcDbLine
 10
6.069508120038107
 20
29.07355904212429
 30
0.0
 11
6.069808120038117
 21
29.07095904212429
 31
0.0
  0
LINE
  5
94C
330
8A5
100
AcDbEntity
  8
0
100
AcDbLine
 10
6.069808120038117
 20
29.07095904212429
 30
0.0
 11
6.070208120038117
 21
29.06835904212428
 31
0.0
  0
LINE
  5
94D
330
8A5
100
AcDbEntity
  8
0
100
AcDbLine
 10
6.070208120038117
 20
29.06835904212428
 30
0.0
 11
6.070608120038116
 21
29.06575904212429
 31
0.0
  0
LINE
  5
94E
330
8A5
100
AcDbEntity
  8
0
100
AcDbLine
 10
6.070608120038116
 20
29.06575904212429
 30
0.0
 11
6.071108120038116
 21
29.06315904212429
 31
0.0
  0
LINE
  5
94F
330
8A5
100
AcDbEntity
  8
0
100
AcDbLine
 10
6.071108120038116
 20
29.06315904212429
 30
0.0
 11
6.071608120038121
 21
29.06065904212429
 31
0.0
  0
LINE
  5
950
330
8A5
100
AcDbEntity
  8
0
100
AcDbLine
 10
6.071608120038121
 20
29.06065904212429
 30
0.0
 11
6.072108120038107
 21
29.05815904212429
 31
0.0
  0
LINE
  5
951
330
8A5
100
AcDbEntity
  8
0
100
AcDbLine
 10
6.072108120038107
 20
29.05815904212429
 30
0.0
 11
6.072708120038112
 21
29.05555904212429
 31
0.0
  0
LINE
  5
952
330
8A5
100
AcDbEntity
  8
0
100
AcDbLine
 10
6.072708120038112
 20
29.05555904212429
 30
0.0
 11
6.073408120038124
 21
29.05305904212429
 31
0.0
  0
LINE
  5
953
330
8A5
100
AcDbEntity
  8
0
100
AcDbLine
 10
6.073408120038124
 20
29.05305904212429
 30
0.0
 11
6.074008120038113
 21
29.05055904212427
 31
0.0
  0
LINE
  5
954
330
8A5
100
AcDbEntity
  8
0
100
AcDbLine
 10
6.074008120038113
 20
29.05055904212427
 30
0.0
 11
6.07470812003811
 21
29.04805904212429
 31
0.0
  0
LINE
  5
955
330
8A5
100
AcDbEntity
  8
0
100
AcDbLine
 10
6.07470812003811
 20
29.04805904212429
 30
0.0
 11
6.075508120038107
 21
29.04555904212429
 31
0.0
  0
LINE
  5
956
330
8A5
100
AcDbEntity
  8
0
100
AcDbLine
 10
6.075508120038107
 20
29.04555904212429
 30
0.0
 11
6.076308120038119
 21
29.04305904212427
 31
0.0
  0
LINE
  5
957
330
8A5
100
AcDbEntity
  8
0
100
AcDbLine
 10
6.076308120038119
 20
29.04305904212427
 30
0.0
 11
6.077108120038117
 21
29.0406590421243
 31
0.0
  0
LINE
  5
958
330
8A5
100
AcDbEntity
  8
0
100
AcDbLine
 10
6.077108120038117
 20
29.0406590421243
 30
0.0
 11
6.078008120038119
 21
29.03815904212428
 31
0.0
  0
LINE
  5
959
330
8A5
100
AcDbEntity
  8
0
100
AcDbLine
 10
6.078008120038119
 20
29.03815904212428
 30
0.0
 11
6.078908120038119
 21
29.03575904212429
 31
0.0
  0
LINE
  5
95A
330
8A5
100
AcDbEntity
  8
0
100
AcDbLine
 10
6.078908120038119
 20
29.03575904212429
 30
0.0
 11
6.079808120038109
 21
29.03325904212429
 31
0.0
  0
LINE
  5
95B
330
8A5
100
AcDbEntity
  8
0
100
AcDbLine
 10
6.079808120038109
 20
29.03325904212429
 30
0.0
 11
6.080808120038112
 21
29.03085904212426
 31
0.0
  0
LINE
  5
95C
330
8A5
100
AcDbEntity
  8
0
100
AcDbLine
 10
6.080808120038112
 20
29.03085904212426
 30
0.0
 11
6.081808120038115
 21
29.0284590421243
 31
0.0
  0
LINE
  5
95D
330
8A5
100
AcDbEntity
  8
0
100
AcDbLine
 10
6.081808120038115
 20
29.0284590421243
 30
0.0
 11
6.082908120038125
 21
29.0260590421243
 31
0.0
  0
LINE
  5
95E
330
8A5
100
AcDbEntity
  8
0
100
AcDbLine
 10
6.082908120038125
 20
29.0260590421243
 30
0.0
 11
6.083908120038117
 21
29.02365904212428
 31
0.0
  0
LINE
  5
95F
330
8A5
100
AcDbEntity
  8
0
100
AcDbLine
 10
6.083908120038117
 20
29.02365904212428
 30
0.0
 11
6.085108120038112
 21
29.02125904212429
 31
0.0
  0
LINE
  5
960
330
8A5
100
AcDbEntity
  8
0
100
AcDbLine
 10
6.085108120038112
 20
29.02125904212429
 30
0.0
 11
6.08620812003812
 21
29.01885904212426
 31
0.0
  0
LINE
  5
961
330
8A5
100
AcDbEntity
  8
0
100
AcDbLine
 10
6.08620812003812
 20
29.01885904212426
 30
0.0
 11
6.087408120038119
 21
29.01655904212427
 31
0.0
  0
LINE
  5
962
330
8A5
100
AcDbEntity
  8
0
100
AcDbLine
 10
6.087408120038119
 20
29.01655904212427
 30
0.0
 11
6.088608120038117
 21
29.01415904212428
 31
0.0
  0
LINE
  5
963
330
8A5
100
AcDbEntity
  8
0
100
AcDbLine
 10
6.088608120038117
 20
29.01415904212428
 30
0.0
 11
6.089908120038117
 21
29.01185904212429
 31
0.0
  0
LINE
  5
964
330
8A5
100
AcDbEntity
  8
0
100
AcDbLine
 10
6.089908120038117
 20
29.01185904212429
 30
0.0
 11
6.091208120038117
 21
29.00945904212429
 31
0.0
  0
LINE
  5
965
330
8A5
100
AcDbEntity
  8
0
100
AcDbLine
 10
6.091208120038117
 20
29.00945904212429
 30
0.0
 11
6.092508120038115
 21
29.0071590421243
 31
0.0
  0
LINE
  5
966
330
8A5
100
AcDbEntity
  8
0
100
AcDbLine
 10
6.092508120038115
 20
29.0071590421243
 30
0.0
 11
6.093808120038119
 21
29.00485904212431
 31
0.0
  0
LINE
  5
967
330
8A5
100
AcDbEntity
  8
0
100
AcDbLine
 10
6.093808120038119
 20
29.00485904212431
 30
0.0
 11
6.095208120038107
 21
29.00245904212429
 31
0.0
  0
LINE
  5
968
330
8A5
100
AcDbEntity
  8
0
100
AcDbLine
 10
6.095208120038107
 20
29.00245904212429
 30
0.0
 11
6.096608120038125
 21
29.0001590421243
 31
0.0
  0
LINE
  5
969
330
8A5
100
AcDbEntity
  8
0
100
AcDbLine
 10
6.096608120038125
 20
29.0001590421243
 30
0.0
 11
6.098008120038114
 21
28.99785904212428
 31
0.0
  0
LINE
  5
96A
330
8A5
100
AcDbEntity
  8
0
100
AcDbLine
 10
6.098008120038114
 20
28.99785904212428
 30
0.0
 11
6.099508120038107
 21
28.99555904212429
 31
0.0
  0
LINE
  5
96B
330
8A5
100
AcDbEntity
  8
0
100
AcDbLine
 10
6.099508120038107
 20
28.99555904212429
 30
0.0
 11
6.100908120038128
 21
28.9933590421243
 31
0.0
  0
LINE
  5
96C
330
8A5
100
AcDbEntity
  8
0
100
AcDbLine
 10
6.100908120038128
 20
28.9933590421243
 30
0.0
 11
6.102508120038121
 21
28.99105904212428
 31
0.0
  0
LINE
  5
96D
330
8A5
100
AcDbEntity
  8
0
100
AcDbLine
 10
6.102508120038121
 20
28.99105904212428
 30
0.0
 11
6.104008120038114
 21
28.98875904212431
 31
0.0
  0
LINE
  5
96E
330
8A5
100
AcDbEntity
  8
0
100
AcDbLine
 10
6.104008120038114
 20
28.98875904212431
 30
0.0
 11
6.105608120038112
 21
28.98645904212429
 31
0.0
  0
LINE
  5
96F
330
8A5
100
AcDbEntity
  8
0
100
AcDbLine
 10
6.105608120038112
 20
28.98645904212429
 30
0.0
 11
6.107108120038119
 21
28.98425904212428
 31
0.0
  0
LINE
  5
970
330
8A5
100
AcDbEntity
  8
0
100
AcDbLine
 10
6.107108120038119
 20
28.98425904212428
 30
0.0
 11
6.108808120038119
 21
28.98195904212429
 31
0.0
  0
LINE
  5
971
330
8A5
100
AcDbEntity
  8
0
100
AcDbLine
 10
6.108808120038119
 20
28.98195904212429
 30
0.0
 11
6.110408120038115
 21
28.97975904212427
 31
0.0
  0
LINE
  5
972
330
8A5
100
AcDbEntity
  8
0
100
AcDbLine
 10
6.110408120038115
 20
28.97975904212427
 30
0.0
 11
6.112108120038113
 21
28.97755904212429
 31
0.0
  0
LINE
  5
973
330
8A5
100
AcDbEntity
  8
0
100
AcDbLine
 10
6.112108120038113
 20
28.97755904212429
 30
0.0
 11
6.113708120038125
 21
28.97525904212429
 31
0.0
  0
LINE
  5
974
330
8A5
100
AcDbEntity
  8
0
100
AcDbLine
 10
6.113708120038125
 20
28.97525904212429
 30
0.0
 11
6.115408120038125
 21
28.97305904212428
 31
0.0
  0
LINE
  5
975
330
8A5
100
AcDbEntity
  8
0
100
AcDbLine
 10
6.115408120038125
 20
28.97305904212428
 30
0.0
 11
6.117208120038127
 21
28.97085904212429
 31
0.0
  0
LINE
  5
976
330
8A5
100
AcDbEntity
  8
0
100
AcDbLine
 10
6.117208120038127
 20
28.97085904212429
 30
0.0
 11
6.118908120038128
 21
28.96865904212427
 31
0.0
  0
LINE
  5
977
330
8A5
100
AcDbEntity
  8
0
100
AcDbLine
 10
6.118908120038128
 20
28.96865904212427
 30
0.0
 11
6.120708120038115
 21
28.96645904212429
 31
0.0
  0
LINE
  5
978
330
8A5
100
AcDbEntity
  8
0
100
AcDbLine
 10
6.120708120038115
 20
28.96645904212429
 30
0.0
 11
6.122508120038119
 21
28.9642590421243
 31
0.0
  0
LINE
  5
979
330
8A5
100
AcDbEntity
  8
0
100
AcDbLine
 10
6.122508120038119
 20
28.9642590421243
 30
0.0
 11
6.124308120038107
 21
28.96205904212428
 31
0.0
  0
LINE
  5
97A
330
8A5
100
AcDbEntity
  8
0
100
AcDbLine
 10
6.124308120038107
 20
28.96205904212428
 30
0.0
 11
6.126108120038125
 21
28.95985904212429
 31
0.0
  0
LINE
  5
97B
330
8A5
100
AcDbEntity
  8
0
100
AcDbLine
 10
6.126108120038125
 20
28.95985904212429
 30
0.0
 11
6.128008120038117
 21
28.95765904212431
 31
0.0
  0
LINE
  5
97C
330
8A5
100
AcDbEntity
  8
0
100
AcDbLine
 10
6.128008120038117
 20
28.95765904212431
 30
0.0
 11
6.129808120038119
 21
28.95545904212429
 31
0.0
  0
LINE
  5
97D
330
8A5
100
AcDbEntity
  8
0
100
AcDbLine
 10
6.129808120038119
 20
28.95545904212429
 30
0.0
 11
6.131708120038125
 21
28.95325904212427
 31
0.0
  0
LINE
  5
97E
330
8A5
100
AcDbEntity
  8
0
100
AcDbLine
 10
6.131708120038125
 20
28.95325904212427
 30
0.0
 11
6.133608120038116
 21
28.95115904212429
 31
0.0
  0
LINE
  5
97F
330
8A5
100
AcDbEntity
  8
0
100
AcDbLine
 10
6.133608120038116
 20
28.95115904212429
 30
0.0
 11
6.135508120038124
 21
28.94895904212427
 31
0.0
  0
LINE
  5
980
330
8A5
100
AcDbEntity
  8
0
100
AcDbLine
 10
6.135508120038124
 20
28.94895904212427
 30
0.0
 11
6.137508120038119
 21
28.94675904212429
 31
0.0
  0
LINE
  5
981
330
8A5
100
AcDbEntity
  8
0
100
AcDbLine
 10
6.137508120038119
 20
28.94675904212429
 30
0.0
 11
6.139408120038125
 21
28.9446590421243
 31
0.0
  0
LINE
  5
982
330
8A5
100
AcDbEntity
  8
0
100
AcDbLine
 10
6.139408120038125
 20
28.9446590421243
 30
0.0
 11
6.141408120038119
 21
28.94245904212429
 31
0.0
  0
LINE
  5
983
330
8A5
100
AcDbEntity
  8
0
100
AcDbLine
 10
6.141408120038119
 20
28.94245904212429
 30
0.0
 11
6.143308120038112
 21
28.9403590421243
 31
0.0
  0
LINE
  5
984
330
8A5
100
AcDbEntity
  8
0
100
AcDbLine
 10
6.143308120038112
 20
28.9403590421243
 30
0.0
 11
6.14530812003812
 21
28.93815904212429
 31
0.0
  0
LINE
  5
985
330
8A5
100
AcDbEntity
  8
0
100
AcDbLine
 10
6.14530812003812
 20
28.93815904212429
 30
0.0
 11
6.147308120038116
 21
28.9360590421243
 31
0.0
  0
LINE
  5
986
330
8A5
100
AcDbEntity
  8
0
100
AcDbLine
 10
6.147308120038116
 20
28.9360590421243
 30
0.0
 11
6.149308120038112
 21
28.93385904212428
 31
0.0
  0
LINE
  5
987
330
8A5
100
AcDbEntity
  8
0
100
AcDbLine
 10
6.149308120038112
 20
28.93385904212428
 30
0.0
 11
6.151408120038125
 21
28.9317590421243
 31
0.0
  0
LINE
  5
988
330
8A5
100
AcDbEntity
  8
0
100
AcDbLine
 10
6.151408120038125
 20
28.9317590421243
 30
0.0
 11
6.153408120038107
 21
28.92965904212429
 31
0.0
  0
LINE
  5
989
330
8A5
100
AcDbEntity
  8
0
100
AcDbLine
 10
6.153408120038107
 20
28.92965904212429
 30
0.0
 11
6.155508120038119
 21
28.9274590421243
 31
0.0
  0
LINE
  5
98A
330
8A5
100
AcDbEntity
  8
0
100
AcDbLine
 10
6.155508120038119
 20
28.9274590421243
 30
0.0
 11
6.157508120038116
 21
28.92535904212432
 31
0.0
  0
LINE
  5
98B
330
8A5
100
AcDbEntity
  8
0
100
AcDbLine
 10
6.157508120038116
 20
28.92535904212432
 30
0.0
 11
6.159608120038112
 21
28.92325904212427
 31
0.0
  0
LINE
  5
98C
330
8A5
100
AcDbEntity
  8
0
100
AcDbLine
 10
6.159608120038112
 20
28.92325904212427
 30
0.0
 11
6.161708120038127
 21
28.92115904212429
 31
0.0
  0
LINE
  5
98D
330
8A5
100
AcDbEntity
  8
0
100
AcDbLine
 10
6.161708120038127
 20
28.92115904212429
 30
0.0
 11
6.163708120038107
 21
28.9189590421243
 31
0.0
  0
LINE
  5
98E
330
8A5
100
AcDbEntity
  8
0
100
AcDbLine
 10
6.163708120038107
 20
28.9189590421243
 30
0.0
 11
6.165808120038119
 21
28.91685904212429
 31
0.0
  0
LINE
  5
98F
330
8A5
100
AcDbEntity
  8
0
100
AcDbLine
 10
6.165808120038119
 20
28.91685904212429
 30
0.0
 11
6.167908120038119
 21
28.91475904212427
 31
0.0
  0
LINE
  5
990
330
8A5
100
AcDbEntity
  8
0
100
AcDbLine
 10
6.167908120038119
 20
28.91475904212427
 30
0.0
 11
6.170008120038119
 21
28.91265904212429
 31
0.0
  0
LINE
  5
991
330
8A5
100
AcDbEntity
  8
0
100
AcDbLine
 10
6.170008120038119
 20
28.91265904212429
 30
0.0
 11
6.172208120038121
 21
28.91055904212428
 31
0.0
  0
LINE
  5
992
330
8A5
100
AcDbEntity
  8
0
100
AcDbLine
 10
6.172208120038121
 20
28.91055904212428
 30
0.0
 11
6.174308120038119
 21
28.90845904212429
 31
0.0
  0
LINE
  5
993
330
8A5
100
AcDbEntity
  8
0
100
AcDbLine
 10
6.174308120038119
 20
28.90845904212429
 30
0.0
 11
6.176408120038117
 21
28.90635904212428
 31
0.0
  0
LINE
  5
994
330
8A5
100
AcDbEntity
  8
0
100
AcDbLine
 10
6.176408120038117
 20
28.90635904212428
 30
0.0
 11
6.178508120038117
 21
28.9042590421243
 31
0.0
  0
LINE
  5
995
330
8A5
100
AcDbEntity
  8
0
100
AcDbLine
 10
6.178508120038117
 20
28.9042590421243
 30
0.0
 11
6.180608120038113
 21
28.90215904212428
 31
0.0
  0
LINE
  5
996
330
8A5
100
AcDbEntity
  8
0
100
AcDbLine
 10
6.180608120038113
 20
28.90215904212428
 30
0.0
 11
6.182808120038115
 21
28.8999590421243
 31
0.0
  0
LINE
  5
997
330
8A5
100
AcDbEntity
  8
0
100
AcDbLine
 10
6.182808120038115
 20
28.8999590421243
 30
0.0
 11
6.184908120038116
 21
28.89785904212431
 31
0.0
  0
LINE
  5
998
330
8A5
100
AcDbEntity
  8
0
100
AcDbLine
 10
6.184908120038116
 20
28.89785904212431
 30
0.0
 11
6.187108120038117
 21
28.8957590421243
 31
0.0
  0
LINE
  5
999
330
8A5
100
AcDbEntity
  8
0
100
AcDbLine
 10
6.187108120038117
 20
28.8957590421243
 30
0.0
 11
6.189208120038117
 21
28.89365904212429
 31
0.0
  0
LINE
  5
99A
330
8A5
100
AcDbEntity
  8
0
100
AcDbLine
 10
6.189208120038117
 20
28.89365904212429
 30
0.0
 11
6.191308120038113
 21
28.8915590421243
 31
0.0
  0
LINE
  5
99B
330
8A5
100
AcDbEntity
  8
0
100
AcDbLine
 10
6.191308120038113
 20
28.8915590421243
 30
0.0
 11
6.193508120038115
 21
28.88945904212429
 31
0.0
  0
LINE
  5
99C
330
8A5
100
AcDbEntity
  8
0
100
AcDbLine
 10
3.755991433019842
 20
28.8894782686362
 30
0.0
 11
3.755991433019842
 21
28.71560659940218
 31
0.0
  0
LINE
  5
99D
330
8A5
100
AcDbEntity
  8
0
100
AcDbLine
 10
3.6863381200381
 20
29.28105904212428
 30
0.0
 11
3.689178120038121
 21
29.27975904212429
 31
0.0
  0
LINE
  5
99E
330
8A5
100
AcDbEntity
  8
0
100
AcDbLine
 10
3.689178120038121
 20
29.27975904212429
 30
0.0
 11
3.692018120038111
 21
29.2784590421243
 31
0.0
  0
LINE
  5
99F
330
8A5
100
AcDbEntity
  8
0
100
AcDbLine
 10
3.692018120038111
 20
29.2784590421243
 30
0.0
 11
3.694848120038115
 21
29.27715904212428
 31
0.0
  0
LINE
  5
9A0
330
8A5
100
AcDbEntity
  8
0
100
AcDbLine
 10
3.694848120038115
 20
29.27715904212428
 30
0.0
 11
3.697688120038121
 21
29.2758590421243
 31
0.0
  0
LINE
  5
9A1
330
8A5
100
AcDbEntity
  8
0
100
AcDbLine
 10
3.697688120038121
 20
29.2758590421243
 30
0.0
 11
3.700518120038111
 21
29.27455904212431
 31
0.0
  0
LINE
  5
9A2
330
8A5
100
AcDbEntity
  8
0
100
AcDbLine
 10
3.700518120038111
 20
29.27455904212431
 30
0.0
 11
3.703348120038126
 21
29.27325904212429
 31
0.0
  0
LINE
  5
9A3
330
8A5
100
AcDbEntity
  8
0
100
AcDbLine
 10
3.703348120038126
 20
29.27325904212429
 30
0.0
 11
3.706168120038113
 21
29.27195904212428
 31
0.0
  0
LINE
  5
9A4
330
8A5
100
AcDbEntity
  8
0
100
AcDbLine
 10
3.706168120038113
 20
29.27195904212428
 30
0.0
 11
3.708988120038128
 21
29.2706590421243
 31
0.0
  0
LINE
  5
9A5
330
8A5
100
AcDbEntity
  8
0
100
AcDbLine
 10
3.708988120038128
 20
29.2706590421243
 30
0.0
 11
3.711808120038112
 21
29.26935904212431
 31
0.0
  0
LINE
  5
9A6
330
8A5
100
AcDbEntity
  8
0
100
AcDbLine
 10
3.711808120038112
 20
29.26935904212431
 30
0.0
 11
3.714628120038126
 21
29.26805904212429
 31
0.0
  0
LINE
  5
9A7
330
8A5
100
AcDbEntity
  8
0
100
AcDbLine
 10
3.714628120038126
 20
29.26805904212429
 30
0.0
 11
3.717428120038121
 21
29.26675904212428
 31
0.0
  0
LINE
  5
9A8
330
8A5
100
AcDbEntity
  8
0
100
AcDbLine
 10
3.717428120038121
 20
29.26675904212428
 30
0.0
 11
3.720228120038115
 21
29.26545904212427
 31
0.0
  0
LINE
  5
9A9
330
8A5
100
AcDbEntity
  8
0
100
AcDbLine
 10
3.720228120038115
 20
29.26545904212427
 30
0.0
 11
3.723028120038121
 21
29.26415904212428
 31
0.0
  0
LINE
  5
9AA
330
8A5
100
AcDbEntity
  8
0
100
AcDbLine
 10
3.723028120038121
 20
29.26415904212428
 30
0.0
 11
3.725818120038126
 21
29.26285904212429
 31
0.0
  0
LINE
  5
9AB
330
8A5
100
AcDbEntity
  8
0
100
AcDbLine
 10
3.725818120038126
 20
29.26285904212429
 30
0.0
 11
3.728598120038098
 21
29.2614590421243
 31
0.0
  0
LINE
  5
9AC
330
8A5
100
AcDbEntity
  8
0
100
AcDbLine
 10
3.728598120038098
 20
29.2614590421243
 30
0.0
 11
3.731368120038126
 21
29.26015904212429
 31
0.0
  0
LINE
  5
9AD
330
8A5
100
AcDbEntity
  8
0
100
AcDbLine
 10
3.731368120038126
 20
29.26015904212429
 30
0.0
 11
3.734138120038123
 21
29.25885904212427
 31
0.0
  0
LINE
  5
9AE
330
8A5
100
AcDbEntity
  8
0
100
AcDbLine
 10
3.734138120038123
 20
29.25885904212427
 30
0.0
 11
3.736888120038115
 21
29.25745904212428
 31
0.0
  0
LINE
  5
9AF
330
8A5
100
AcDbEntity
  8
0
100
AcDbLine
 10
3.736888120038115
 20
29.25745904212428
 30
0.0
 11
3.739638120038107
 21
29.2561590421243
 31
0.0
  0
LINE
  5
9B0
330
8A5
100
AcDbEntity
  8
0
100
AcDbLine
 10
3.739638120038107
 20
29.2561590421243
 30
0.0
 11
3.742368120038122
 21
29.25475904212428
 31
0.0
  0
LINE
  5
9B1
330
8A5
100
AcDbEntity
  8
0
100
AcDbLine
 10
3.742368120038122
 20
29.25475904212428
 30
0.0
 11
3.745088120038118
 21
29.25345904212426
 31
0.0
  0
LINE
  5
9B2
330
8A5
100
AcDbEntity
  8
0
100
AcDbLine
 10
3.745088120038118
 20
29.25345904212426
 30
0.0
 11
3.747808120038115
 21
29.25205904212428
 31
0.0
  0
LINE
  5
9B3
330
8A5
100
AcDbEntity
  8
0
100
AcDbLine
 10
3.747808120038115
 20
29.25205904212428
 30
0.0
 11
3.750508120038118
 21
29.25065904212429
 31
0.0
  0
LINE
  5
9B4
330
8A5
100
AcDbEntity
  8
0
100
AcDbLine
 10
3.750508120038118
 20
29.25065904212429
 30
0.0
 11
3.753198120038121
 21
29.24935904212427
 31
0.0
  0
LINE
  5
9B5
330
8A5
100
AcDbEntity
  8
0
100
AcDbLine
 10
3.753198120038121
 20
29.24935904212427
 30
0.0
 11
3.755868120038115
 21
29.24795904212428
 31
0.0
  0
LINE
  5
9B6
330
8A5
100
AcDbEntity
  8
0
100
AcDbLine
 10
3.755868120038115
 20
29.24795904212428
 30
0.0
 11
3.758538120038108
 21
29.24655904212429
 31
0.0
  0
LINE
  5
9B7
330
8A5
100
AcDbEntity
  8
0
100
AcDbLine
 10
3.758538120038108
 20
29.24655904212429
 30
0.0
 11
3.761178120038123
 21
29.24515904212427
 31
0.0
  0
LINE
  5
9B8
330
8A5
100
AcDbEntity
  8
0
100
AcDbLine
 10
3.761178120038123
 20
29.24515904212427
 30
0.0
 11
3.763818120038123
 21
29.24375904212431
 31
0.0
  0
LINE
  5
9B9
330
8A5
100
AcDbEntity
  8
0
100
AcDbLine
 10
3.763818120038123
 20
29.24375904212431
 30
0.0
 11
3.766438120038115
 21
29.24235904212427
 31
0.0
  0
LINE
  5
9BA
330
8A5
100
AcDbEntity
  8
0
100
AcDbLine
 10
3.766438120038115
 20
29.24235904212427
 30
0.0
 11
3.769038120038118
 21
29.24085904212427
 31
0.0
  0
LINE
  5
9BB
330
8A5
100
AcDbEntity
  8
0
100
AcDbLine
 10
3.769038120038118
 20
29.24085904212427
 30
0.0
 11
3.771628120038116
 21
29.23945904212431
 31
0.0
  0
LINE
  5
9BC
330
8A5
100
AcDbEntity
  8
0
100
AcDbLine
 10
3.771628120038116
 20
29.23945904212431
 30
0.0
 11
3.774198120038121
 21
29.23795904212429
 31
0.0
  0
LINE
  5
9BD
330
8A5
100
AcDbEntity
  8
0
100
AcDbLine
 10
3.774198120038121
 20
29.23795904212429
 30
0.0
 11
3.776748120038121
 21
29.23655904212427
 31
0.0
  0
LINE
  5
9BE
330
8A5
100
AcDbEntity
  8
0
100
AcDbLine
 10
3.776748120038121
 20
29.23655904212427
 30
0.0
 11
3.779288120038116
 21
29.23505904212428
 31
0.0
  0
LINE
  5
9BF
330
8A5
100
AcDbEntity
  8
0
100
AcDbLine
 10
3.779288120038116
 20
29.23505904212428
 30
0.0
 11
3.781808120038121
 21
29.23355904212428
 31
0.0
  0
LINE
  5
9C0
330
8A5
100
AcDbEntity
  8
0
100
AcDbLine
 10
3.781808120038121
 20
29.23355904212428
 30
0.0
 11
3.784308120038118
 21
29.23205904212429
 31
0.0
  0
LINE
  5
9C1
330
8A5
100
AcDbEntity
  8
0
100
AcDbLine
 10
3.784308120038118
 20
29.23205904212429
 30
0.0
 11
3.786788120038123
 21
29.23055904212427
 31
0.0
  0
LINE
  5
9C2
330
8A5
100
AcDbEntity
  8
0
100
AcDbLine
 10
3.786788120038123
 20
29.23055904212427
 30
0.0
 11
3.789248120038107
 21
29.22905904212428
 31
0.0
  0
LINE
  5
9C3
330
8A5
100
AcDbEntity
  8
0
100
AcDbLine
 10
3.789248120038107
 20
29.22905904212428
 30
0.0
 11
3.791688120038116
 21
29.22755904212428
 31
0.0
  0
LINE
  5
9C4
330
8A5
100
AcDbEntity
  8
0
100
AcDbLine
 10
3.791688120038116
 20
29.22755904212428
 30
0.0
 11
3.794098120038113
 21
29.22605904212426
 31
0.0
  0
LINE
  5
9C5
330
8A5
100
AcDbEntity
  8
0
100
AcDbLine
 10
3.794098120038113
 20
29.22605904212426
 30
0.0
 11
3.796498120038107
 21
29.22445904212427
 31
0.0
  0
LINE
  5
9C6
330
8A5
100
AcDbEntity
  8
0
100
AcDbLine
 10
3.796498120038107
 20
29.22445904212427
 30
0.0
 11
3.798878120038123
 21
29.22295904212428
 31
0.0
  0
LINE
  5
9C7
330
8A5
100
AcDbEntity
  8
0
100
AcDbLine
 10
3.798878120038123
 20
29.22295904212428
 30
0.0
 11
3.801228120038118
 21
29.22135904212428
 31
0.0
  0
LINE
  5
9C8
330
8A5
100
AcDbEntity
  8
0
100
AcDbLine
 10
3.801228120038118
 20
29.22135904212428
 30
0.0
 11
3.803558120038118
 21
29.21975904212431
 31
0.0
  0
LINE
  5
9C9
330
8A5
100
AcDbEntity
  8
0
100
AcDbLine
 10
3.803558120038118
 20
29.21975904212431
 30
0.0
 11
3.805858120038123
 21
29.21815904212428
 31
0.0
  0
LINE
  5
9CA
330
8A5
100
AcDbEntity
  8
0
100
AcDbLine
 10
3.805858120038123
 20
29.21815904212428
 30
0.0
 11
3.808148120038126
 21
29.21655904212429
 31
0.0
  0
LINE
  5
9CB
330
8A5
100
AcDbEntity
  8
0
100
AcDbLine
 10
3.808148120038126
 20
29.21655904212429
 30
0.0
 11
3.810398120038115
 21
29.21495904212426
 31
0.0
  0
LINE
  5
9CC
330
8A5
100
AcDbEntity
  8
0
100
AcDbLine
 10
3.810398120038115
 20
29.21495904212426
 30
0.0
 11
3.812628120038112
 21
29.21325904212429
 31
0.0
  0
LINE
  5
9CD
330
8A5
100
AcDbEntity
  8
0
100
AcDbLine
 10
3.812628120038112
 20
29.21325904212429
 30
0.0
 11
3.814838120038118
 21
29.21165904212429
 31
0.0
  0
LINE
  5
9CE
330
8A5
100
AcDbEntity
  8
0
100
AcDbLine
 10
3.814838120038118
 20
29.21165904212429
 30
0.0
 11
3.817018120038111
 21
29.2099590421243
 31
0.0
  0
LINE
  5
9CF
330
8A5
100
AcDbEntity
  8
0
100
AcDbLine
 10
3.817018120038111
 20
29.2099590421243
 30
0.0
 11
3.819168120038113
 21
29.20825904212427
 31
0.0
  0
LINE
  5
9D0
330
8A5
100
AcDbEntity
  8
0
100
AcDbLine
 10
3.819168120038113
 20
29.20825904212427
 30
0.0
 11
3.821298120038107
 21
29.20655904212427
 31
0.0
  0
LINE
  5
9D1
330
8A5
100
AcDbEntity
  8
0
100
AcDbLine
 10
3.821298120038107
 20
29.20655904212427
 30
0.0
 11
3.823398120038118
 21
29.20485904212427
 31
0.0
  0
LINE
  5
9D2
330
8A5
100
AcDbEntity
  8
0
100
AcDbLine
 10
3.823398120038118
 20
29.20485904212427
 30
0.0
 11
3.825458120038121
 21
29.2030590421243
 31
0.0
  0
LINE
  5
9D3
330
8A5
100
AcDbEntity
  8
0
100
AcDbLine
 10
3.825458120038121
 20
29.2030590421243
 30
0.0
 11
3.827498120038113
 21
29.20135904212429
 31
0.0
  0
LINE
  5
9D4
330
8A5
100
AcDbEntity
  8
0
100
AcDbLine
 10
3.827498120038113
 20
29.20135904212429
 30
0.0
 11
3.829518120038116
 21
29.19955904212427
 31
0.0
  0
LINE
  5
9D5
330
8A5
100
AcDbEntity
  8
0
100
AcDbLine
 10
3.829518120038116
 20
29.19955904212427
 30
0.0
 11
3.831498120038118
 21
29.19775904212429
 31
0.0
  0
LINE
  5
9D6
330
8A5
100
AcDbEntity
  8
0
100
AcDbLine
 10
3.831498120038118
 20
29.19775904212429
 30
0.0
 11
3.833448120038126
 21
29.19595904212429
 31
0.0
  0
LINE
  5
9D7
330
8A5
100
AcDbEntity
  8
0
100
AcDbLine
 10
3.833448120038126
 20
29.19595904212429
 30
0.0
 11
3.835368120038125
 21
29.19415904212428
 31
0.0
  0
LINE
  5
9D8
330
8A5
100
AcDbEntity
  8
0
100
AcDbLine
 10
3.835368120038125
 20
29.19415904212428
 30
0.0
 11
3.837248120038123
 21
29.19225904212428
 31
0.0
  0
LINE
  5
9D9
330
8A5
100
AcDbEntity
  8
0
100
AcDbLine
 10
3.837248120038123
 20
29.19225904212428
 30
0.0
 11
3.839108120038118
 21
29.1904590421243
 31
0.0
  0
LINE
  5
9DA
330
8A5
100
AcDbEntity
  8
0
100
AcDbLine
 10
3.839108120038118
 20
29.1904590421243
 30
0.0
 11
3.840928120038113
 21
29.1885590421243
 31
0.0
  0
LINE
  5
9DB
330
8A5
100
AcDbEntity
  8
0
100
AcDbLine
 10
3.840928120038113
 20
29.1885590421243
 30
0.0
 11
3.842718120038112
 21
29.18665904212426
 31
0.0
  0
LINE
  5
9DC
330
8A5
100
AcDbEntity
  8
0
100
AcDbLine
 10
3.842718120038112
 20
29.18665904212426
 30
0.0
 11
3.844468120038101
 21
29.18475904212428
 31
0.0
  0
LINE
  5
9DD
330
8A5
100
AcDbEntity
  8
0
100
AcDbLine
 10
3.844468120038101
 20
29.18475904212428
 30
0.0
 11
3.846198120038123
 21
29.18275904212431
 31
0.0
  0
LINE
  5
9DE
330
8A5
100
AcDbEntity
  8
0
100
AcDbLine
 10
3.846198120038123
 20
29.18275904212431
 30
0.0
 11
3.847878120038116
 21
29.1808590421243
 31
0.0
  0
LINE
  5
9DF
330
8A5
100
AcDbEntity
  8
0
100
AcDbLine
 10
3.847878120038116
 20
29.1808590421243
 30
0.0
 11
3.849528120038115
 21
29.17885904212429
 31
0.0
  0
LINE
  5
9E0
330
8A5
100
AcDbEntity
  8
0
100
AcDbLine
 10
3.849528120038115
 20
29.17885904212429
 30
0.0
 11
3.851148120038118
 21
29.17685904212428
 31
0.0
  0
LINE
  5
9E1
330
8A5
100
AcDbEntity
  8
0
100
AcDbLine
 10
3.851148120038118
 20
29.17685904212428
 30
0.0
 11
3.852728120038106
 21
29.1748590421243
 31
0.0
  0
LINE
  5
9E2
330
8A5
100
AcDbEntity
  8
0
100
AcDbLine
 10
3.852728120038106
 20
29.1748590421243
 30
0.0
 11
3.854268120038113
 21
29.17275904212429
 31
0.0
  0
LINE
  5
9E3
330
8A5
100
AcDbEntity
  8
0
100
AcDbLine
 10
3.854268120038113
 20
29.17275904212429
 30
0.0
 11
3.855768120038121
 21
29.17065904212427
 31
0.0
  0
LINE
  5
9E4
330
8A5
100
AcDbEntity
  8
0
100
AcDbLine
 10
3.855768120038121
 20
29.17065904212427
 30
0.0
 11
3.857238120038118
 21
29.16865904212429
 31
0.0
  0
LINE
  5
9E5
330
8A5
100
AcDbEntity
  8
0
100
AcDbLine
 10
3.857238120038118
 20
29.16865904212429
 30
0.0
 11
3.858658120038112
 21
29.1664590421243
 31
0.0
  0
LINE
  5
9E6
330
8A5
100
AcDbEntity
  8
0
100
AcDbLine
 10
3.858658120038112
 20
29.1664590421243
 30
0.0
 11
3.860048120038115
 21
29.16435904212429
 31
0.0
  0
LINE
  5
9E7
330
8A5
100
AcDbEntity
  8
0
100
AcDbLine
 10
3.860048120038115
 20
29.16435904212429
 30
0.0
 11
3.861398120038115
 21
29.16225904212428
 31
0.0
  0
LINE
  5
9E8
330
8A5
100
AcDbEntity
  8
0
100
AcDbLine
 10
3.861398120038115
 20
29.16225904212428
 30
0.0
 11
3.862708120038121
 21
29.16005904212429
 31
0.0
  0
LINE
  5
9E9
330
8A5
100
AcDbEntity
  8
0
100
AcDbLine
 10
3.862708120038121
 20
29.16005904212429
 30
0.0
 11
3.863968120038123
 21
29.15785904212427
 31
0.0
  0
LINE
  5
9EA
330
8A5
100
AcDbEntity
  8
0
100
AcDbLine
 10
3.863968120038123
 20
29.15785904212427
 30
0.0
 11
3.865198120038115
 21
29.15555904212428
 31
0.0
  0
LINE
  5
9EB
330
8A5
100
AcDbEntity
  8
0
100
AcDbLine
 10
3.865198120038115
 20
29.15555904212428
 30
0.0
 11
3.866378120038118
 21
29.1533590421243
 31
0.0
  0
LINE
  5
9EC
330
8A5
100
AcDbEntity
  8
0
100
AcDbLine
 10
3.866378120038118
 20
29.1533590421243
 30
0.0
 11
3.867518120038111
 21
29.1510590421243
 31
0.0
  0
LINE
  5
9ED
330
8A5
100
AcDbEntity
  8
0
100
AcDbLine
 10
3.867518120038111
 20
29.1510590421243
 30
0.0
 11
3.868618120038121
 21
29.14875904212428
 31
0.0
  0
LINE
  5
9EE
330
8A5
100
AcDbEntity
  8
0
100
AcDbLine
 10
3.868618120038121
 20
29.14875904212428
 30
0.0
 11
3.869678120038115
 21
29.14645904212429
 31
0.0
  0
LINE
  5
9EF
330
8A5
100
AcDbEntity
  8
0
100
AcDbLine
 10
3.869678120038115
 20
29.14645904212429
 30
0.0
 11
3.870688120038123
 21
29.14405904212427
 31
0.0
  0
LINE
  5
9F0
330
8A5
100
AcDbEntity
  8
0
100
AcDbLine
 10
3.870688120038123
 20
29.14405904212427
 30
0.0
 11
3.871658120038118
 21
29.14175904212428
 31
0.0
  0
LINE
  5
9F1
330
8A5
100
AcDbEntity
  8
0
100
AcDbLine
 10
3.871658120038118
 20
29.14175904212428
 30
0.0
 11
3.872578120038126
 21
29.13935904212428
 31
0.0
  0
LINE
  5
9F2
330
8A5
100
AcDbEntity
  8
0
100
AcDbLine
 10
3.872578120038126
 20
29.13935904212428
 30
0.0
 11
3.873448120038118
 21
29.13685904212428
 31
0.0
  0
LINE
  5
9F3
330
8A5
100
AcDbEntity
  8
0
100
AcDbLine
 10
3.873448120038118
 20
29.13685904212428
 30
0.0
 11
3.874278120038126
 21
29.13445904212429
 31
0.0
  0
LINE
  5
9F4
330
8A5
100
AcDbEntity
  8
0
100
AcDbLine
 10
3.874278120038126
 20
29.13445904212429
 30
0.0
 11
3.875068120038121
 21
29.13195904212429
 31
0.0
  0
LINE
  5
9F5
330
8A5
100
AcDbEntity
  8
0
100
AcDbLine
 10
3.875068120038121
 20
29.13195904212429
 30
0.0
 11
3.875798120038126
 21
29.1294590421243
 31
0.0
  0
LINE
  5
9F6
330
8A5
100
AcDbEntity
  8
0
100
AcDbLine
 10
3.875798120038126
 20
29.1294590421243
 30
0.0
 11
3.876488120038118
 21
29.12685904212427
 31
0.0
  0
LINE
  5
9F7
330
8A5
100
AcDbEntity
  8
0
100
AcDbLine
 10
3.876488120038118
 20
29.12685904212427
 30
0.0
 11
3.877128120038122
 21
29.12435904212427
 31
0.0
  0
LINE
  5
9F8
330
8A5
100
AcDbEntity
  8
0
100
AcDbLine
 10
3.877128120038122
 20
29.12435904212427
 30
0.0
 11
3.877718120038123
 21
29.1217590421243
 31
0.0
  0
LINE
  5
9F9
330
8A5
100
AcDbEntity
  8
0
100
AcDbLine
 10
3.877718120038123
 20
29.1217590421243
 30
0.0
 11
3.878258120038123
 21
29.11905904212429
 31
0.0
  0
LINE
  5
9FA
330
8A5
100
AcDbEntity
  8
0
100
AcDbLine
 10
3.878258120038123
 20
29.11905904212429
 30
0.0
 11
3.878758120038126
 21
29.11645904212426
 31
0.0
  0
LINE
  5
9FB
330
8A5
100
AcDbEntity
  8
0
100
AcDbLine
 10
3.878758120038126
 20
29.11645904212426
 30
0.0
 11
3.879198120038123
 21
29.11375904212429
 31
0.0
  0
LINE
  5
9FC
330
8A5
100
AcDbEntity
  8
0
100
AcDbLine
 10
3.879198120038123
 20
29.11375904212429
 30
0.0
 11
3.879588120038121
 21
29.11105904212431
 31
0.0
  0
LINE
  5
9FD
330
8A5
100
AcDbEntity
  8
0
100
AcDbLine
 10
3.879588120038121
 20
29.11105904212431
 30
0.0
 11
3.879938120038118
 21
29.10835904212428
 31
0.0
  0
LINE
  5
9FE
330
8A5
100
AcDbEntity
  8
0
100
AcDbLine
 10
3.879938120038118
 20
29.10835904212428
 30
0.0
 11
3.880228120038125
 21
29.10565904212428
 31
0.0
  0
LINE
  5
9FF
330
8A5
100
AcDbEntity
  8
0
100
AcDbLine
 10
3.880228120038125
 20
29.10565904212428
 30
0.0
 11
3.880478120038118
 21
29.10295904212427
 31
0.0
  0
LINE
  5
A00
330
8A5
100
AcDbEntity
  8
0
100
AcDbLine
 10
3.880478120038118
 20
29.10295904212427
 30
0.0
 11
3.880678120038126
 21
29.10025904212429
 31
0.0
  0
LINE
  5
A01
330
8A5
100
AcDbEntity
  8
0
100
AcDbLine
 10
3.880678120038126
 20
29.10025904212429
 30
0.0
 11
3.880828120038115
 21
29.09755904212429
 31
0.0
  0
LINE
  5
A02
330
8A5
100
AcDbEntity
  8
0
100
AcDbLine
 10
3.880828120038115
 20
29.09755904212429
 30
0.0
 11
3.880918120038115
 21
29.09485904212429
 31
0.0
  0
LINE
  5
A03
330
8A5
100
AcDbEntity
  8
0
100
AcDbLine
 10
3.880918120038115
 20
29.09485904212429
 30
0.0
 11
3.880968120038118
 21
29.09215904212428
 31
0.0
  0
LINE
  5
A04
330
8A5
100
AcDbEntity
  8
0
100
AcDbLine
 10
3.880968120038118
 20
29.09215904212428
 30
0.0
 11
3.880968120038118
 21
29.08945904212428
 31
0.0
  0
LINE
  5
A05
330
8A5
100
AcDbEntity
  8
0
100
AcDbLine
 10
3.880968120038118
 20
29.08945904212428
 30
0.0
 11
3.88092812003812
 21
29.08675904212427
 31
0.0
  0
LINE
  5
A06
330
8A5
100
AcDbEntity
  8
0
100
AcDbLine
 10
3.88092812003812
 20
29.08675904212427
 30
0.0
 11
3.880828120038115
 21
29.08405904212429
 31
0.0
  0
LINE
  5
A07
330
8A5
100
AcDbEntity
  8
0
100
AcDbLine
 10
3.880828120038115
 20
29.08405904212429
 30
0.0
 11
3.880688120038115
 21
29.0814590421243
 31
0.0
  0
LINE
  5
A08
330
8A5
100
AcDbEntity
  8
0
100
AcDbLine
 10
3.880688120038115
 20
29.0814590421243
 30
0.0
 11
3.880498120038126
 21
29.07875904212429
 31
0.0
  0
LINE
  5
A09
330
8A5
100
AcDbEntity
  8
0
100
AcDbLine
 10
3.880498120038126
 20
29.07875904212429
 30
0.0
 11
3.880258120038121
 21
29.07615904212429
 31
0.0
  0
LINE
  5
A0A
330
8A5
100
AcDbEntity
  8
0
100
AcDbLine
 10
3.880258120038121
 20
29.07615904212429
 30
0.0
 11
3.879968120038112
 21
29.07355904212429
 31
0.0
  0
LINE
  5
A0B
330
8A5
100
AcDbEntity
  8
0
100
AcDbLine
 10
3.879968120038112
 20
29.07355904212429
 30
0.0
 11
3.879648120038126
 21
29.07095904212429
 31
0.0
  0
LINE
  5
A0C
330
8A5
100
AcDbEntity
  8
0
100
AcDbLine
 10
3.879648120038126
 20
29.07095904212429
 30
0.0
 11
3.879268120038118
 21
29.06835904212428
 31
0.0
  0
LINE
  5
A0D
330
8A5
100
AcDbEntity
  8
0
100
AcDbLine
 10
3.879268120038118
 20
29.06835904212428
 30
0.0
 11
3.878858120038115
 21
29.06575904212429
 31
0.0
  0
LINE
  5
A0E
330
8A5
100
AcDbEntity
  8
0
100
AcDbLine
 10
3.878858120038115
 20
29.06575904212429
 30
0.0
 11
3.878388120038123
 21
29.06315904212429
 31
0.0
  0
LINE
  5
A0F
330
8A5
100
AcDbEntity
  8
0
100
AcDbLine
 10
3.878388120038123
 20
29.06315904212429
 30
0.0
 11
3.877888120038107
 21
29.06065904212429
 31
0.0
  0
LINE
  5
A10
330
8A5
100
AcDbEntity
  8
0
100
AcDbLine
 10
3.877888120038107
 20
29.06065904212429
 30
0.0
 11
3.877338120038118
 21
29.05815904212429
 31
0.0
  0
LINE
  5
A11
330
8A5
100
AcDbEntity
  8
0
100
AcDbLine
 10
3.877338120038118
 20
29.05815904212429
 30
0.0
 11
3.876748120038115
 21
29.05555904212429
 31
0.0
  0
LINE
  5
A12
330
8A5
100
AcDbEntity
  8
0
100
AcDbLine
 10
3.876748120038115
 20
29.05555904212429
 30
0.0
 11
3.876118120038113
 21
29.05305904212429
 31
0.0
  0
LINE
  5
A13
330
8A5
100
AcDbEntity
  8
0
100
AcDbLine
 10
3.876118120038113
 20
29.05305904212429
 30
0.0
 11
3.875448120038098
 21
29.05055904212427
 31
0.0
  0
LINE
  5
A14
330
8A5
100
AcDbEntity
  8
0
100
AcDbLine
 10
3.875448120038098
 20
29.05055904212427
 30
0.0
 11
3.874738120038116
 21
29.04805904212429
 31
0.0
  0
LINE
  5
A15
330
8A5
100
AcDbEntity
  8
0
100
AcDbLine
 10
3.874738120038116
 20
29.04805904212429
 30
0.0
 11
3.87398812003812
 21
29.04555904212429
 31
0.0
  0
LINE
  5
A16
330
8A5
100
AcDbEntity
  8
0
100
AcDbLine
 10
3.87398812003812
 20
29.04555904212429
 30
0.0
 11
3.873198120038125
 21
29.04305904212427
 31
0.0
  0
LINE
  5
A17
330
8A5
100
AcDbEntity
  8
0
100
AcDbLine
 10
3.873198120038125
 20
29.04305904212427
 30
0.0
 11
3.872368120038116
 21
29.0406590421243
 31
0.0
  0
LINE
  5
A18
330
8A5
100
AcDbEntity
  8
0
100
AcDbLine
 10
3.872368120038116
 20
29.0406590421243
 30
0.0
 11
3.871498120038125
 21
29.03815904212428
 31
0.0
  0
LINE
  5
A19
330
8A5
100
AcDbEntity
  8
0
100
AcDbLine
 10
3.871498120038125
 20
29.03815904212428
 30
0.0
 11
3.870598120038123
 21
29.03575904212429
 31
0.0
  0
LINE
  5
A1A
330
8A5
100
AcDbEntity
  8
0
100
AcDbLine
 10
3.870598120038123
 20
29.03575904212429
 30
0.0
 11
3.86965812003811
 21
29.03325904212429
 31
0.0
  0
LINE
  5
A1B
330
8A5
100
AcDbEntity
  8
0
100
AcDbLine
 10
3.86965812003811
 20
29.03325904212429
 30
0.0
 11
3.868678120038126
 21
29.03085904212426
 31
0.0
  0
LINE
  5
A1C
330
8A5
100
AcDbEntity
  8
0
100
AcDbLine
 10
3.868678120038126
 20
29.03085904212426
 30
0.0
 11
3.867658120038098
 21
29.0284590421243
 31
0.0
  0
LINE
  5
A1D
330
8A5
100
AcDbEntity
  8
0
100
AcDbLine
 10
3.867658120038098
 20
29.0284590421243
 30
0.0
 11
3.866608120038106
 21
29.0260590421243
 31
0.0
  0
LINE
  5
A1E
330
8A5
100
AcDbEntity
  8
0
100
AcDbLine
 10
3.866608120038106
 20
29.0260590421243
 30
0.0
 11
3.865528120038121
 21
29.02365904212428
 31
0.0
  0
LINE
  5
A1F
330
8A5
100
AcDbEntity
  8
0
100
AcDbLine
 10
3.865528120038121
 20
29.02365904212428
 30
0.0
 11
3.864408120038118
 21
29.02125904212429
 31
0.0
  0
LINE
  5
A20
330
8A5
100
AcDbEntity
  8
0
100
AcDbLine
 10
3.864408120038118
 20
29.02125904212429
 30
0.0
 11
3.863258120038123
 21
29.01885904212426
 31
0.0
  0
LINE
  5
A21
330
8A5
100
AcDbEntity
  8
0
100
AcDbLine
 10
3.863258120038123
 20
29.01885904212426
 30
0.0
 11
3.86207812003812
 21
29.01655904212427
 31
0.0
  0
LINE
  5
A22
330
8A5
100
AcDbEntity
  8
0
100
AcDbLine
 10
3.86207812003812
 20
29.01655904212427
 30
0.0
 11
3.860858120038115
 21
29.01415904212428
 31
0.0
  0
LINE
  5
A23
330
8A5
100
AcDbEntity
  8
0
100
AcDbLine
 10
3.860858120038115
 20
29.01415904212428
 30
0.0
 11
3.859608120038116
 21
29.01185904212429
 31
0.0
  0
LINE
  5
A24
330
8A5
100
AcDbEntity
  8
0
100
AcDbLine
 10
3.859608120038116
 20
29.01185904212429
 30
0.0
 11
3.858328120038123
 21
29.00945904212429
 31
0.0
  0
LINE
  5
A25
330
8A5
100
AcDbEntity
  8
0
100
AcDbLine
 10
3.858328120038123
 20
29.00945904212429
 30
0.0
 11
3.857018120038118
 21
29.0071590421243
 31
0.0
  0
LINE
  5
A26
330
8A5
100
AcDbEntity
  8
0
100
AcDbLine
 10
3.857018120038118
 20
29.0071590421243
 30
0.0
 11
3.85567812003812
 21
29.00485904212431
 31
0.0
  0
LINE
  5
A27
330
8A5
100
AcDbEntity
  8
0
100
AcDbLine
 10
3.85567812003812
 20
29.00485904212431
 30
0.0
 11
3.854308120038126
 21
29.00245904212429
 31
0.0
  0
LINE
  5
A28
330
8A5
100
AcDbEntity
  8
0
100
AcDbLine
 10
3.854308120038126
 20
29.00245904212429
 30
0.0
 11
3.852898120038118
 21
29.0001590421243
 31
0.0
  0
LINE
  5
A29
330
8A5
100
AcDbEntity
  8
0
100
AcDbLine
 10
3.852898120038118
 20
29.0001590421243
 30
0.0
 11
3.851478120038109
 21
28.99785904212428
 31
0.0
  0
LINE
  5
A2A
330
8A5
100
AcDbEntity
  8
0
100
AcDbLine
 10
3.851478120038109
 20
28.99785904212428
 30
0.0
 11
3.850018120038113
 21
28.99555904212429
 31
0.0
  0
LINE
  5
A2B
330
8A5
100
AcDbEntity
  8
0
100
AcDbLine
 10
3.850018120038113
 20
28.99555904212429
 30
0.0
 11
3.848528120038123
 21
28.9933590421243
 31
0.0
  0
LINE
  5
A2C
330
8A5
100
AcDbEntity
  8
0
100
AcDbLine
 10
3.848528120038123
 20
28.9933590421243
 30
0.0
 11
3.847018120038113
 21
28.99105904212428
 31
0.0
  0
LINE
  5
A2D
330
8A5
100
AcDbEntity
  8
0
100
AcDbLine
 10
3.847018120038113
 20
28.99105904212428
 30
0.0
 11
3.845488120038126
 21
28.98875904212431
 31
0.0
  0
LINE
  5
A2E
330
8A5
100
AcDbEntity
  8
0
100
AcDbLine
 10
3.845488120038126
 20
28.98875904212431
 30
0.0
 11
3.843918120038123
 21
28.98645904212429
 31
0.0
  0
LINE
  5
A2F
330
8A5
100
AcDbEntity
  8
0
100
AcDbLine
 10
3.843918120038123
 20
28.98645904212429
 30
0.0
 11
3.842328120038118
 21
28.98425904212428
 31
0.0
  0
LINE
  5
A30
330
8A5
100
AcDbEntity
  8
0
100
AcDbLine
 10
3.842328120038118
 20
28.98425904212428
 30
0.0
 11
3.840718120038118
 21
28.98195904212429
 31
0.0
  0
LINE
  5
A31
330
8A5
100
AcDbEntity
  8
0
100
AcDbLine
 10
3.840718120038118
 20
28.98195904212429
 30
0.0
 11
3.839078120038123
 21
28.97975904212427
 31
0.0
  0
LINE
  5
A32
330
8A5
100
AcDbEntity
  8
0
100
AcDbLine
 10
3.839078120038123
 20
28.97975904212427
 30
0.0
 11
3.837418120038107
 21
28.97755904212429
 31
0.0
  0
LINE
  5
A33
330
8A5
100
AcDbEntity
  8
0
100
AcDbLine
 10
3.837418120038107
 20
28.97755904212429
 30
0.0
 11
3.835738120038115
 21
28.97525904212429
 31
0.0
  0
LINE
  5
A34
330
8A5
100
AcDbEntity
  8
0
100
AcDbLine
 10
3.835738120038115
 20
28.97525904212429
 30
0.0
 11
3.83402812003811
 21
28.97305904212428
 31
0.0
  0
LINE
  5
A35
330
8A5
100
AcDbEntity
  8
0
100
AcDbLine
 10
3.83402812003811
 20
28.97305904212428
 30
0.0
 11
3.832308120038121
 21
28.97085904212429
 31
0.0
  0
LINE
  5
A36
330
8A5
100
AcDbEntity
  8
0
100
AcDbLine
 10
3.832308120038121
 20
28.97085904212429
 30
0.0
 11
3.830558120038118
 21
28.96865904212427
 31
0.0
  0
LINE
  5
A37
330
8A5
100
AcDbEntity
  8
0
100
AcDbLine
 10
3.830558120038118
 20
28.96865904212427
 30
0.0
 11
3.828788120038126
 21
28.96645904212429
 31
0.0
  0
LINE
  5
A38
330
8A5
100
AcDbEntity
  8
0
100
AcDbLine
 10
3.828788120038126
 20
28.96645904212429
 30
0.0
 11
3.826998120038126
 21
28.9642590421243
 31
0.0
  0
LINE
  5
A39
330
8A5
100
AcDbEntity
  8
0
100
AcDbLine
 10
3.826998120038126
 20
28.9642590421243
 30
0.0
 11
3.82518812003812
 21
28.96205904212428
 31
0.0
  0
LINE
  5
A3A
330
8A5
100
AcDbEntity
  8
0
100
AcDbLine
 10
3.82518812003812
 20
28.96205904212428
 30
0.0
 11
3.823358120038106
 21
28.95985904212429
 31
0.0
  0
LINE
  5
A3B
330
8A5
100
AcDbEntity
  8
0
100
AcDbLine
 10
3.823358120038106
 20
28.95985904212429
 30
0.0
 11
3.821508120038116
 21
28.95765904212431
 31
0.0
  0
LINE
  5
A3C
330
8A5
100
AcDbEntity
  8
0
100
AcDbLine
 10
3.821508120038116
 20
28.95765904212431
 30
0.0
 11
3.819648120038122
 21
28.95545904212429
 31
0.0
  0
LINE
  5
A3D
330
8A5
100
AcDbEntity
  8
0
100
AcDbLine
 10
3.819648120038122
 20
28.95545904212429
 30
0.0
 11
3.817758120038121
 21
28.95325904212427
 31
0.0
  0
LINE
  5
A3E
330
8A5
100
AcDbEntity
  8
0
100
AcDbLine
 10
3.817758120038121
 20
28.95325904212427
 30
0.0
 11
3.815858120038113
 21
28.95115904212429
 31
0.0
  0
LINE
  5
A3F
330
8A5
100
AcDbEntity
  8
0
100
AcDbLine
 10
3.815858120038113
 20
28.95115904212429
 30
0.0
 11
3.813948120038118
 21
28.94895904212427
 31
0.0
  0
LINE
  5
A40
330
8A5
100
AcDbEntity
  8
0
100
AcDbLine
 10
3.813948120038118
 20
28.94895904212427
 30
0.0
 11
3.812018120038118
 21
28.94675904212429
 31
0.0
  0
LINE
  5
A41
330
8A5
100
AcDbEntity
  8
0
100
AcDbLine
 10
3.812018120038118
 20
28.94675904212429
 30
0.0
 11
3.810068120038123
 21
28.9446590421243
 31
0.0
  0
LINE
  5
A42
330
8A5
100
AcDbEntity
  8
0
100
AcDbLine
 10
3.810068120038123
 20
28.9446590421243
 30
0.0
 11
3.808108120038126
 21
28.94245904212429
 31
0.0
  0
LINE
  5
A43
330
8A5
100
AcDbEntity
  8
0
100
AcDbLine
 10
3.808108120038126
 20
28.94245904212429
 30
0.0
 11
3.806138120038126
 21
28.9403590421243
 31
0.0
  0
LINE
  5
A44
330
8A5
100
AcDbEntity
  8
0
100
AcDbLine
 10
3.806138120038126
 20
28.9403590421243
 30
0.0
 11
3.804148120038121
 21
28.93815904212429
 31
0.0
  0
LINE
  5
A45
330
8A5
100
AcDbEntity
  8
0
100
AcDbLine
 10
3.804148120038121
 20
28.93815904212429
 30
0.0
 11
3.802148120038125
 21
28.9360590421243
 31
0.0
  0
LINE
  5
A46
330
8A5
100
AcDbEntity
  8
0
100
AcDbLine
 10
3.802148120038125
 20
28.9360590421243
 30
0.0
 11
3.800128120038122
 21
28.93385904212428
 31
0.0
  0
LINE
  5
A47
330
8A5
100
AcDbEntity
  8
0
100
AcDbLine
 10
3.800128120038122
 20
28.93385904212428
 30
0.0
 11
3.798108120038107
 21
28.9317590421243
 31
0.0
  0
LINE
  5
A48
330
8A5
100
AcDbEntity
  8
0
100
AcDbLine
 10
3.798108120038107
 20
28.9317590421243
 30
0.0
 11
3.796068120038112
 21
28.92965904212429
 31
0.0
  0
LINE
  5
A49
330
8A5
100
AcDbEntity
  8
0
100
AcDbLine
 10
3.796068120038112
 20
28.92965904212429
 30
0.0
 11
3.794018120038115
 21
28.9274590421243
 31
0.0
  0
LINE
  5
A4A
330
8A5
100
AcDbEntity
  8
0
100
AcDbLine
 10
3.794018120038115
 20
28.9274590421243
 30
0.0
 11
3.79196812003812
 21
28.92535904212432
 31
0.0
  0
LINE
  5
A4B
330
8A5
100
AcDbEntity
  8
0
100
AcDbLine
 10
3.79196812003812
 20
28.92535904212432
 30
0.0
 11
3.789898120038115
 21
28.92325904212427
 31
0.0
  0
LINE
  5
A4C
330
8A5
100
AcDbEntity
  8
0
100
AcDbLine
 10
3.789898120038115
 20
28.92325904212427
 30
0.0
 11
3.787818120038108
 21
28.92115904212429
 31
0.0
  0
LINE
  5
A4D
330
8A5
100
AcDbEntity
  8
0
100
AcDbLine
 10
3.787818120038108
 20
28.92115904212429
 30
0.0
 11
3.785738120038118
 21
28.9189590421243
 31
0.0
  0
LINE
  5
A4E
330
8A5
100
AcDbEntity
  8
0
100
AcDbLine
 10
3.785738120038118
 20
28.9189590421243
 30
0.0
 11
3.783648120038122
 21
28.91685904212429
 31
0.0
  0
LINE
  5
A4F
330
8A5
100
AcDbEntity
  8
0
100
AcDbLine
 10
3.783648120038122
 20
28.91685904212429
 30
0.0
 11
3.781548120038123
 21
28.91475904212427
 31
0.0
  0
LINE
  5
A50
330
8A5
100
AcDbEntity
  8
0
100
AcDbLine
 10
3.781548120038123
 20
28.91475904212427
 30
0.0
 11
3.779438120038121
 21
28.91265904212429
 31
0.0
  0
LINE
  5
A51
330
8A5
100
AcDbEntity
  8
0
100
AcDbLine
 10
3.779438120038121
 20
28.91265904212429
 30
0.0
 11
3.77732812003812
 21
28.91055904212428
 31
0.0
  0
LINE
  5
A52
330
8A5
100
AcDbEntity
  8
0
100
AcDbLine
 10
3.77732812003812
 20
28.91055904212428
 30
0.0
 11
3.775208120038115
 21
28.90845904212429
 31
0.0
  0
LINE
  5
A53
330
8A5
100
AcDbEntity
  8
0
100
AcDbLine
 10
3.775208120038115
 20
28.90845904212429
 30
0.0
 11
3.773088120038122
 21
28.90635904212428
 31
0.0
  0
LINE
  5
A54
330
8A5
100
AcDbEntity
  8
0
100
AcDbLine
 10
3.773088120038122
 20
28.90635904212428
 30
0.0
 11
3.770958120038116
 21
28.9042590421243
 31
0.0
  0
LINE
  5
A55
330
8A5
100
AcDbEntity
  8
0
100
AcDbLine
 10
3.770958120038116
 20
28.9042590421243
 30
0.0
 11
3.768828120038107
 21
28.90215904212428
 31
0.0
  0
LINE
  5
A56
330
8A5
100
AcDbEntity
  8
0
100
AcDbLine
 10
3.768828120038107
 20
28.90215904212428
 30
0.0
 11
3.766698120038113
 21
28.8999590421243
 31
0.0
  0
LINE
  5
A57
330
8A5
100
AcDbEntity
  8
0
100
AcDbLine
 10
3.766698120038113
 20
28.8999590421243
 30
0.0
 11
3.764558120038115
 21
28.89785904212431
 31
0.0
  0
LINE
  5
A58
330
8A5
100
AcDbEntity
  8
0
100
AcDbLine
 10
3.764558120038115
 20
28.89785904212431
 30
0.0
 11
3.76241812003812
 21
28.8957590421243
 31
0.0
  0
LINE
  5
A59
330
8A5
100
AcDbEntity
  8
0
100
AcDbLine
 10
3.76241812003812
 20
28.8957590421243
 30
0.0
 11
3.760278120038123
 21
28.89365904212429
 31
0.0
  0
LINE
  5
A5A
330
8A5
100
AcDbEntity
  8
0
100
AcDbLine
 10
3.760278120038123
 20
28.89365904212429
 30
0.0
 11
3.758138120038123
 21
28.8915590421243
 31
0.0
  0
LINE
  5
A5B
330
8A5
100
AcDbEntity
  8
0
100
AcDbLine
 10
3.758138120038123
 20
28.8915590421243
 30
0.0
 11
3.755988120038125
 21
28.88945904212429
 31
0.0
  0
LINE
  5
A5C
330
8A5
100
AcDbEntity
  8
0
  6
Continuous
100
AcDbLine
 10
6.491109499566164
 20
30.64833888089535
 30
0.0
 11
3.458377220724996
 21
30.64833862346532
 31
0.0
  0
LINE
  5
A5D
330
8A5
100
AcDbEntity
  8
0
  6
Continuous
100
AcDbLine
 10
3.458377220724996
 20
30.40782149449752
 30
0.0
 11
6.491109499566164
 21
30.40782149449754
 31
0.0
  0
LINE
  5
A5E
330
8A5
100
AcDbEntity
  8
0
100
AcDbLine
 10
3.224743360145595
 20
40.83181977901185
 30
0.0
 11
6.724743360145595
 21
40.83181977901185
 31
0.0
  0
ARC
  5
A5F
330
8A5
100
AcDbEntity
  8
0
100
AcDbCircle
 10
3.786368047162085
 20
29.9506058894811
 30
0.0
 40
0.436765117664736
100
AcDbArc
 50
126.6407082692387
 51
240.0760270000003
  0
ARC
  5
A60
330
8A5
100
AcDbEntity
  8
0
100
AcDbCircle
 10
4.974743360145593
 20
33.23044869779315
 30
0.0
 40
2.582109945612818
100
AcDbArc
 50
227.3326855914482
 51
312.6673144085505
  0
LINE
  5
A61
330
8A5
100
AcDbEntity
  8
0
100
AcDbLine
 10
6.724743360145595
 20
40.83181977901185
 30
0.0
 11
6.724743360145595
 21
30.77420288918072
 31
0.0
  0
LINE
  5
A62
330
8A5
100
AcDbEntity
  8
0
100
AcDbLine
 10
7.449743360145587
 20
31.16477729385233
 30
0.0
 11
6.491109538936283
 21
30.64833890210494
 31
0.0
  0
LINE
  5
A63
330
8A5
100
AcDbEntity
  8
0
  6
Continuous
100
AcDbLine
 10
6.287208120038116
 20
29.52805904212429
 30
0.0
 11
3.662238120038125
 21
29.52805904212429
 31
0.0
  0
ARC
  5
A64
330
8A5
100
AcDbEntity
  8
0
  6
Continuous
100
AcDbCircle
 10
6.453477131836365
 20
30.3401225647321
 30
0.0
 40
0.0490678608924327
100
AcDbArc
 50
112.2905600278651
 51
232.7519270830806
  0
ARC
  5
A65
330
8A5
100
AcDbEntity
  8
0
100
AcDbCircle
 10
6.280500946382956
 20
30.85713203908529
 30
0.0
 40
0.4962216522398872
100
AcDbArc
 50
288.121595975775
 51
295.1142322096151
  0
LINE
  5
A66
330
8A5
100
AcDbEntity
  8
0
100
AcDbLine
 10
6.491109499566164
 20
30.64833888089535
 30
0.0
 11
6.491109499566164
 21
30.40782149449754
 31
0.0
  0
LINE
  5
A67
330
8A5
100
AcDbEntity
  8
0
100
AcDbLine
 10
6.381008120038115
 20
29.57205904212427
 30
0.0
 11
6.380308120038107
 21
29.57175904212429
 31
0.0
  0
LINE
  5
A68
330
8A5
100
AcDbEntity
  8
0
100
AcDbLine
 10
6.380308120038107
 20
29.57175904212429
 30
0.0
 11
6.379508120038124
 21
29.57135904212427
 31
0.0
  0
LINE
  5
A69
330
8A5
100
AcDbEntity
  8
0
100
AcDbLine
 10
6.379508120038124
 20
29.57135904212427
 30
0.0
 11
6.378808120038113
 21
29.57105904212429
 31
0.0
  0
LINE
  5
A6A
330
8A5
100
AcDbEntity
  8
0
100
AcDbLine
 10
6.378808120038113
 20
29.57105904212429
 30
0.0
 11
6.378008120038117
 21
29.57065904212428
 31
0.0
  0
LINE
  5
A6B
330
8A5
100
AcDbEntity
  8
0
100
AcDbLine
 10
6.378008120038117
 20
29.57065904212428
 30
0.0
 11
6.37730812003812
 21
29.5703590421243
 31
0.0
  0
LINE
  5
A6C
330
8A5
100
AcDbEntity
  8
0
100
AcDbLine
 10
6.37730812003812
 20
29.5703590421243
 30
0.0
 11
6.376608120038127
 21
29.56995904212428
 31
0.0
  0
LINE
  5
A6D
330
8A5
100
AcDbEntity
  8
0
100
AcDbLine
 10
6.376608120038127
 20
29.56995904212428
 30
0.0
 11
6.375808120038113
 21
29.5696590421243
 31
0.0
  0
LINE
  5
A6E
330
8A5
100
AcDbEntity
  8
0
100
AcDbLine
 10
6.375808120038113
 20
29.5696590421243
 30
0.0
 11
6.375108120038119
 21
29.56925904212429
 31
0.0
  0
LINE
  5
A6F
330
8A5
100
AcDbEntity
  8
0
100
AcDbLine
 10
6.375108120038119
 20
29.56925904212429
 30
0.0
 11
6.374308120038107
 21
29.56895904212428
 31
0.0
  0
LINE
  5
A70
330
8A5
100
AcDbEntity
  8
0
100
AcDbLine
 10
6.374308120038107
 20
29.56895904212428
 30
0.0
 11
6.373608120038112
 21
29.56855904212429
 31
0.0
  0
LINE
  5
A71
330
8A5
100
AcDbEntity
  8
0
100
AcDbLine
 10
6.373608120038112
 20
29.56855904212429
 30
0.0
 11
6.372908120038117
 21
29.56825904212431
 31
0.0
  0
LINE
  5
A72
330
8A5
100
AcDbEntity
  8
0
100
AcDbLine
 10
6.372908120038117
 20
29.56825904212431
 30
0.0
 11
6.372108120038119
 21
29.56795904212427
 31
0.0
  0
LINE
  5
A73
330
8A5
100
AcDbEntity
  8
0
100
AcDbLine
 10
6.372108120038119
 20
29.56795904212427
 30
0.0
 11
6.371408120038125
 21
29.56755904212429
 31
0.0
  0
LINE
  5
A74
330
8A5
100
AcDbEntity
  8
0
100
AcDbLine
 10
6.371408120038125
 20
29.56755904212429
 30
0.0
 11
6.370708120038115
 21
29.56725904212428
 31
0.0
  0
LINE
  5
A75
330
8A5
100
AcDbEntity
  8
0
100
AcDbLine
 10
6.370708120038115
 20
29.56725904212428
 30
0.0
 11
6.369908120038116
 21
29.56685904212426
 31
0.0
  0
LINE
  5
A76
330
8A5
100
AcDbEntity
  8
0
100
AcDbLine
 10
6.369908120038116
 20
29.56685904212426
 30
0.0
 11
6.369208120038122
 21
29.56655904212428
 31
0.0
  0
LINE
  5
A77
330
8A5
100
AcDbEntity
  8
0
100
AcDbLine
 10
6.369208120038122
 20
29.56655904212428
 30
0.0
 11
6.368408120038111
 21
29.56615904212427
 31
0.0
  0
LINE
  5
A78
330
8A5
100
AcDbEntity
  8
0
100
AcDbLine
 10
6.368408120038111
 20
29.56615904212427
 30
0.0
 11
6.367708120038114
 21
29.56585904212429
 31
0.0
  0
LINE
  5
A79
330
8A5
100
AcDbEntity
  8
0
100
AcDbLine
 10
6.367708120038114
 20
29.56585904212429
 30
0.0
 11
6.367008120038119
 21
29.5654590421243
 31
0.0
  0
LINE
  5
A7A
330
8A5
100
AcDbEntity
  8
0
100
AcDbLine
 10
6.367008120038119
 20
29.5654590421243
 30
0.0
 11
6.366208120038121
 21
29.56515904212429
 31
0.0
  0
LINE
  5
A7B
330
8A5
100
AcDbEntity
  8
0
100
AcDbLine
 10
6.366208120038121
 20
29.56515904212429
 30
0.0
 11
6.365508120038112
 21
29.56475904212428
 31
0.0
  0
LINE
  5
A7C
330
8A5
100
AcDbEntity
  8
0
100
AcDbLine
 10
6.365508120038112
 20
29.56475904212428
 30
0.0
 11
6.364808120038119
 21
29.56445904212427
 31
0.0
  0
LINE
  5
A7D
330
8A5
100
AcDbEntity
  8
0
100
AcDbLine
 10
6.364808120038119
 20
29.56445904212427
 30
0.0
 11
6.364008120038119
 21
29.56405904212429
 31
0.0
  0
LINE
  5
A7E
330
8A5
100
AcDbEntity
  8
0
100
AcDbLine
 10
6.364008120038119
 20
29.56405904212429
 30
0.0
 11
6.363308120038112
 21
29.56375904212431
 31
0.0
  0
LINE
  5
A7F
330
8A5
100
AcDbEntity
  8
0
100
AcDbLine
 10
6.363308120038112
 20
29.56375904212431
 30
0.0
 11
6.362508120038112
 21
29.5634590421243
 31
0.0
  0
LINE
  5
A80
330
8A5
100
AcDbEntity
  8
0
100
AcDbLine
 10
6.362508120038112
 20
29.5634590421243
 30
0.0
 11
6.361808120038119
 21
29.56305904212431
 31
0.0
  0
LINE
  5
A81
330
8A5
100
AcDbEntity
  8
0
100
AcDbLine
 10
6.361808120038119
 20
29.56305904212431
 30
0.0
 11
6.361108120038124
 21
29.56275904212427
 31
0.0
  0
LINE
  5
A82
330
8A5
100
AcDbEntity
  8
0
100
AcDbLine
 10
6.361108120038124
 20
29.56275904212427
 30
0.0
 11
6.360308120038125
 21
29.56235904212429
 31
0.0
  0
LINE
  5
A83
330
8A5
100
AcDbEntity
  8
0
100
AcDbLine
 10
6.360308120038125
 20
29.56235904212429
 30
0.0
 11
6.359608120038116
 21
29.5620590421243
 31
0.0
  0
LINE
  5
A84
330
8A5
100
AcDbEntity
  8
0
100
AcDbLine
 10
6.359608120038116
 20
29.5620590421243
 30
0.0
 11
6.358808120038119
 21
29.56165904212426
 31
0.0
  0
LINE
  5
A85
330
8A5
100
AcDbEntity
  8
0
100
AcDbLine
 10
6.358808120038119
 20
29.56165904212426
 30
0.0
 11
6.358108120038108
 21
29.56135904212428
 31
0.0
  0
LINE
  5
A86
330
8A5
100
AcDbEntity
  8
0
100
AcDbLine
 10
6.358108120038108
 20
29.56135904212428
 30
0.0
 11
6.357408120038113
 21
29.5609590421243
 31
0.0
  0
LINE
  5
A87
330
8A5
100
AcDbEntity
  8
0
100
AcDbLine
 10
6.357408120038113
 20
29.5609590421243
 30
0.0
 11
6.356608120038115
 21
29.56065904212429
 31
0.0
  0
LINE
  5
A88
330
8A5
100
AcDbEntity
  8
0
100
AcDbLine
 10
6.356608120038115
 20
29.56065904212429
 30
0.0
 11
6.355908120038122
 21
29.5602590421243
 31
0.0
  0
LINE
  5
A89
330
8A5
100
AcDbEntity
  8
0
100
AcDbLine
 10
6.355908120038122
 20
29.5602590421243
 30
0.0
 11
6.355208120038128
 21
29.55995904212429
 31
0.0
  0
LINE
  5
A8A
330
8A5
100
AcDbEntity
  8
0
100
AcDbLine
 10
6.355208120038128
 20
29.55995904212429
 30
0.0
 11
6.354408120038113
 21
29.55955904212428
 31
0.0
  0
LINE
  5
A8B
330
8A5
100
AcDbEntity
  8
0
100
AcDbLine
 10
6.354408120038113
 20
29.55955904212428
 30
0.0
 11
6.353708120038119
 21
29.5592590421243
 31
0.0
  0
LINE
  5
A8C
330
8A5
100
AcDbEntity
  8
0
100
AcDbLine
 10
6.353708120038119
 20
29.5592590421243
 30
0.0
 11
6.352908120038107
 21
29.55895904212429
 31
0.0
  0
LINE
  5
A8D
330
8A5
100
AcDbEntity
  8
0
100
AcDbLine
 10
6.352908120038107
 20
29.55895904212429
 30
0.0
 11
6.352208120038111
 21
29.5585590421243
 31
0.0
  0
LINE
  5
A8E
330
8A5
100
AcDbEntity
  8
0
100
AcDbLine
 10
6.352208120038111
 20
29.5585590421243
 30
0.0
 11
6.351508120038117
 21
29.55825904212426
 31
0.0
  0
LINE
  5
A8F
330
8A5
100
AcDbEntity
  8
0
100
AcDbLine
 10
6.351508120038117
 20
29.55825904212426
 30
0.0
 11
6.350708120038119
 21
29.55785904212428
 31
0.0
  0
LINE
  5
A90
330
8A5
100
AcDbEntity
  8
0
100
AcDbLine
 10
6.350708120038119
 20
29.55785904212428
 30
0.0
 11
6.350008120038125
 21
29.5575590421243
 31
0.0
  0
LINE
  5
A91
330
8A5
100
AcDbEntity
  8
0
100
AcDbLine
 10
6.350008120038125
 20
29.5575590421243
 30
0.0
 11
6.349208120038127
 21
29.55715904212429
 31
0.0
  0
LINE
  5
A92
330
8A5
100
AcDbEntity
  8
0
100
AcDbLine
 10
6.349208120038127
 20
29.55715904212429
 30
0.0
 11
6.348508120038117
 21
29.5568590421243
 31
0.0
  0
LINE
  5
A93
330
8A5
100
AcDbEntity
  8
0
100
AcDbLine
 10
6.348508120038117
 20
29.5568590421243
 30
0.0
 11
6.347808120038108
 21
29.55645904212429
 31
0.0
  0
LINE
  5
A94
330
8A5
100
AcDbEntity
  8
0
100
AcDbLine
 10
6.347808120038108
 20
29.55645904212429
 30
0.0
 11
6.347008120038125
 21
29.55615904212428
 31
0.0
  0
LINE
  5
A95
330
8A5
100
AcDbEntity
  8
0
100
AcDbLine
 10
6.347008120038125
 20
29.55615904212428
 30
0.0
 11
6.346308120038115
 21
29.55575904212429
 31
0.0
  0
LINE
  5
A96
330
8A5
100
AcDbEntity
  8
0
100
AcDbLine
 10
6.346308120038115
 20
29.55575904212429
 30
0.0
 11
6.345608120038122
 21
29.55545904212428
 31
0.0
  0
LINE
  5
A97
330
8A5
100
AcDbEntity
  8
0
100
AcDbLine
 10
6.345608120038122
 20
29.55545904212428
 30
0.0
 11
6.344808120038122
 21
29.55505904212427
 31
0.0
  0
LINE
  5
A98
330
8A5
100
AcDbEntity
  8
0
100
AcDbLine
 10
6.344808120038122
 20
29.55505904212427
 30
0.0
 11
6.344108120038129
 21
29.55475904212429
 31
0.0
  0
LINE
  5
A99
330
8A5
100
AcDbEntity
  8
0
100
AcDbLine
 10
6.344108120038129
 20
29.55475904212429
 30
0.0
 11
6.343308120038114
 21
29.55445904212428
 31
0.0
  0
LINE
  5
A9A
330
8A5
100
AcDbEntity
  8
0
100
AcDbLine
 10
6.343308120038114
 20
29.55445904212428
 30
0.0
 11
6.342608120038121
 21
29.5540590421243
 31
0.0
  0
LINE
  5
A9B
330
8A5
100
AcDbEntity
  8
0
100
AcDbLine
 10
6.342608120038121
 20
29.5540590421243
 30
0.0
 11
6.341908120038111
 21
29.55375904212429
 31
0.0
  0
LINE
  5
A9C
330
8A5
100
AcDbEntity
  8
0
100
AcDbLine
 10
6.341908120038111
 20
29.55375904212429
 30
0.0
 11
6.341108120038112
 21
29.55335904212427
 31
0.0
  0
LINE
  5
A9D
330
8A5
100
AcDbEntity
  8
0
100
AcDbLine
 10
6.341108120038112
 20
29.55335904212427
 30
0.0
 11
6.340408120038119
 21
29.55305904212429
 31
0.0
  0
LINE
  5
A9E
330
8A5
100
AcDbEntity
  8
0
100
AcDbLine
 10
6.340408120038119
 20
29.55305904212429
 30
0.0
 11
6.339708120038125
 21
29.55265904212428
 31
0.0
  0
LINE
  5
A9F
330
8A5
100
AcDbEntity
  8
0
100
AcDbLine
 10
6.339708120038125
 20
29.55265904212428
 30
0.0
 11
6.338908120038125
 21
29.55235904212428
 31
0.0
  0
LINE
  5
AA0
330
8A5
100
AcDbEntity
  8
0
100
AcDbLine
 10
6.338908120038125
 20
29.55235904212428
 30
0.0
 11
6.338208120038117
 21
29.55195904212431
 31
0.0
  0
LINE
  5
AA1
330
8A5
100
AcDbEntity
  8
0
100
AcDbLine
 10
6.338208120038117
 20
29.55195904212431
 30
0.0
 11
6.337408120038119
 21
29.55165904212427
 31
0.0
  0
LINE
  5
AA2
330
8A5
100
AcDbEntity
  8
0
100
AcDbLine
 10
6.337408120038119
 20
29.55165904212427
 30
0.0
 11
6.336708120038125
 21
29.55125904212429
 31
0.0
  0
LINE
  5
AA3
330
8A5
100
AcDbEntity
  8
0
100
AcDbLine
 10
6.336708120038125
 20
29.55125904212429
 30
0.0
 11
6.336008120038115
 21
29.55095904212427
 31
0.0
  0
LINE
  5
AA4
330
8A5
100
AcDbEntity
  8
0
100
AcDbLine
 10
6.336008120038115
 20
29.55095904212427
 30
0.0
 11
6.335208120038116
 21
29.55055904212427
 31
0.0
  0
LINE
  5
AA5
330
8A5
100
AcDbEntity
  8
0
100
AcDbLine
 10
6.335208120038116
 20
29.55055904212427
 30
0.0
 11
6.334508120038122
 21
29.55025904212428
 31
0.0
  0
LINE
  5
AA6
330
8A5
100
AcDbEntity
  8
0
100
AcDbLine
 10
6.334508120038122
 20
29.55025904212428
 30
0.0
 11
6.333708120038124
 21
29.5499590421243
 31
0.0
  0
LINE
  5
AA7
330
8A5
100
AcDbEntity
  8
0
100
AcDbLine
 10
6.333708120038124
 20
29.5499590421243
 30
0.0
 11
6.333008120038113
 21
29.54955904212429
 31
0.0
  0
LINE
  5
AA8
330
8A5
100
AcDbEntity
  8
0
100
AcDbLine
 10
6.333008120038113
 20
29.54955904212429
 30
0.0
 11
6.332308120038121
 21
29.54925904212428
 31
0.0
  0
LINE
  5
AA9
330
8A5
100
AcDbEntity
  8
0
100
AcDbLine
 10
6.332308120038121
 20
29.54925904212428
 30
0.0
 11
6.331508120038107
 21
29.54885904212429
 31
0.0
  0
LINE
  5
AAA
330
8A5
100
AcDbEntity
  8
0
100
AcDbLine
 10
6.331508120038107
 20
29.54885904212429
 30
0.0
 11
6.330808120038112
 21
29.54855904212431
 31
0.0
  0
LINE
  5
AAB
330
8A5
100
AcDbEntity
  8
0
100
AcDbLine
 10
6.330808120038112
 20
29.54855904212431
 30
0.0
 11
6.330108120038119
 21
29.54815904212427
 31
0.0
  0
LINE
  5
AAC
330
8A5
100
AcDbEntity
  8
0
100
AcDbLine
 10
6.330108120038119
 20
29.54815904212427
 30
0.0
 11
6.329308120038119
 21
29.54785904212429
 31
0.0
  0
LINE
  5
AAD
330
8A5
100
AcDbEntity
  8
0
100
AcDbLine
 10
6.329308120038119
 20
29.54785904212429
 30
0.0
 11
6.328608120038125
 21
29.5474590421243
 31
0.0
  0
LINE
  5
AAE
330
8A5
100
AcDbEntity
  8
0
100
AcDbLine
 10
6.328608120038125
 20
29.5474590421243
 30
0.0
 11
6.327808120038127
 21
29.54715904212426
 31
0.0
  0
LINE
  5
AAF
330
8A5
100
AcDbEntity
  8
0
100
AcDbLine
 10
6.327808120038127
 20
29.54715904212426
 30
0.0
 11
6.327108120038117
 21
29.54675904212428
 31
0.0
  0
LINE
  5
AB0
330
8A5
100
AcDbEntity
  8
0
100
AcDbLine
 10
6.327108120038117
 20
29.54675904212428
 30
0.0
 11
6.326408120038109
 21
29.54645904212427
 31
0.0
  0
LINE
  5
AB1
330
8A5
100
AcDbEntity
  8
0
100
AcDbLine
 10
6.326408120038109
 20
29.54645904212427
 30
0.0
 11
6.32560812003811
 21
29.54605904212428
 31
0.0
  0
LINE
  5
AB2
330
8A5
100
AcDbEntity
  8
0
100
AcDbLine
 10
6.32560812003811
 20
29.54605904212428
 30
0.0
 11
6.324908120038116
 21
29.5457590421243
 31
0.0
  0
LINE
  5
AB3
330
8A5
100
AcDbEntity
  8
0
100
AcDbLine
 10
6.324908120038116
 20
29.5457590421243
 30
0.0
 11
6.324108120038117
 21
29.54545904212429
 31
0.0
  0
LINE
  5
AB4
330
8A5
100
AcDbEntity
  8
0
100
AcDbLine
 10
6.324108120038117
 20
29.54545904212429
 30
0.0
 11
6.323408120038124
 21
29.54505904212428
 31
0.0
  0
LINE
  5
AB5
330
8A5
100
AcDbEntity
  8
0
100
AcDbLine
 10
6.323408120038124
 20
29.54505904212428
 30
0.0
 11
6.322708120038112
 21
29.54475904212428
 31
0.0
  0
LINE
  5
AB6
330
8A5
100
AcDbEntity
  8
0
100
AcDbLine
 10
6.322708120038112
 20
29.54475904212428
 30
0.0
 11
6.321908120038115
 21
29.54435904212429
 31
0.0
  0
LINE
  5
AB7
330
8A5
100
AcDbEntity
  8
0
100
AcDbLine
 10
6.321908120038115
 20
29.54435904212429
 30
0.0
 11
6.321208120038107
 21
29.54405904212431
 31
0.0
  0
LINE
  5
AB8
330
8A5
100
AcDbEntity
  8
0
100
AcDbLine
 10
6.321208120038107
 20
29.54405904212431
 30
0.0
 11
6.320508120038112
 21
29.54365904212429
 31
0.0
  0
LINE
  5
AB9
330
8A5
100
AcDbEntity
  8
0
100
AcDbLine
 10
6.320508120038112
 20
29.54365904212429
 30
0.0
 11
6.319708120038112
 21
29.54335904212431
 31
0.0
  0
LINE
  5
ABA
330
8A5
100
AcDbEntity
  8
0
100
AcDbLine
 10
6.319708120038112
 20
29.54335904212431
 30
0.0
 11
6.319008120038119
 21
29.54295904212429
 31
0.0
  0
LINE
  5
ABB
330
8A5
100
AcDbEntity
  8
0
100
AcDbLine
 10
6.319008120038119
 20
29.54295904212429
 30
0.0
 11
6.318208120038121
 21
29.54265904212429
 31
0.0
  0
LINE
  5
ABC
330
8A5
100
AcDbEntity
  8
0
100
AcDbLine
 10
6.318208120038121
 20
29.54265904212429
 30
0.0
 11
6.317508120038128
 21
29.5422590421243
 31
0.0
  0
LINE
  5
ABD
330
8A5
100
AcDbEntity
  8
0
100
AcDbLine
 10
6.317508120038128
 20
29.5422590421243
 30
0.0
 11
6.316808120038117
 21
29.54195904212426
 31
0.0
  0
LINE
  5
ABE
330
8A5
100
AcDbEntity
  8
0
100
AcDbLine
 10
6.316808120038117
 20
29.54195904212426
 30
0.0
 11
6.316008120038119
 21
29.54155904212428
 31
0.0
  0
LINE
  5
ABF
330
8A5
100
AcDbEntity
  8
0
100
AcDbLine
 10
6.316008120038119
 20
29.54155904212428
 30
0.0
 11
6.31530812003811
 21
29.5412590421243
 31
0.0
  0
LINE
  5
AC0
330
8A5
100
AcDbEntity
  8
0
100
AcDbLine
 10
6.31530812003811
 20
29.5412590421243
 30
0.0
 11
6.314608120038116
 21
29.54095904212429
 31
0.0
  0
LINE
  5
AC1
330
8A5
100
AcDbEntity
  8
0
100
AcDbLine
 10
6.314608120038116
 20
29.54095904212429
 30
0.0
 11
6.313808120038117
 21
29.5405590421243
 31
0.0
  0
LINE
  5
AC2
330
8A5
100
AcDbEntity
  8
0
100
AcDbLine
 10
6.313808120038117
 20
29.5405590421243
 30
0.0
 11
6.313108120038122
 21
29.54025904212429
 31
0.0
  0
LINE
  5
AC3
330
8A5
100
AcDbEntity
  8
0
100
AcDbLine
 10
6.313108120038122
 20
29.54025904212429
 30
0.0
 11
6.312308120038125
 21
29.53985904212428
 31
0.0
  0
LINE
  5
AC4
330
8A5
100
AcDbEntity
  8
0
100
AcDbLine
 10
6.312308120038125
 20
29.53985904212428
 30
0.0
 11
6.311608120038115
 21
29.5395590421243
 31
0.0
  0
LINE
  5
AC5
330
8A5
100
AcDbEntity
  8
0
100
AcDbLine
 10
6.311608120038115
 20
29.5395590421243
 30
0.0
 11
6.310908120038121
 21
29.53915904212428
 31
0.0
  0
LINE
  5
AC6
330
8A5
100
AcDbEntity
  8
0
100
AcDbLine
 10
6.310908120038121
 20
29.53915904212428
 30
0.0
 11
6.310108120038107
 21
29.5388590421243
 31
0.0
  0
LINE
  5
AC7
330
8A5
100
AcDbEntity
  8
0
100
AcDbLine
 10
6.310108120038107
 20
29.5388590421243
 30
0.0
 11
6.309408120038114
 21
29.53845904212429
 31
0.0
  0
LINE
  5
AC8
330
8A5
100
AcDbEntity
  8
0
100
AcDbLine
 10
6.309408120038114
 20
29.53845904212429
 30
0.0
 11
6.308608120038113
 21
29.53815904212428
 31
0.0
  0
LINE
  5
AC9
330
8A5
100
AcDbEntity
  8
0
100
AcDbLine
 10
6.308608120038113
 20
29.53815904212428
 30
0.0
 11
6.307908120038121
 21
29.53775904212429
 31
0.0
  0
LINE
  5
ACA
330
8A5
100
AcDbEntity
  8
0
100
AcDbLine
 10
6.307908120038121
 20
29.53775904212429
 30
0.0
 11
6.307208120038125
 21
29.53745904212428
 31
0.0
  0
LINE
  5
ACB
330
8A5
100
AcDbEntity
  8
0
100
AcDbLine
 10
6.307208120038125
 20
29.53745904212428
 30
0.0
 11
6.306408120038128
 21
29.53705904212427
 31
0.0
  0
LINE
  5
ACC
330
8A5
100
AcDbEntity
  8
0
100
AcDbLine
 10
6.306408120038128
 20
29.53705904212427
 30
0.0
 11
6.305708120038119
 21
29.53675904212429
 31
0.0
  0
LINE
  5
ACD
330
8A5
100
AcDbEntity
  8
0
100
AcDbLine
 10
6.305708120038119
 20
29.53675904212429
 30
0.0
 11
6.30500812003811
 21
29.53645904212428
 31
0.0
  0
LINE
  5
ACE
330
8A5
100
AcDbEntity
  8
0
100
AcDbLine
 10
6.30500812003811
 20
29.53645904212428
 30
0.0
 11
6.304208120038125
 21
29.53605904212429
 31
0.0
  0
LINE
  5
ACF
330
8A5
100
AcDbEntity
  8
0
100
AcDbLine
 10
6.304208120038125
 20
29.53605904212429
 30
0.0
 11
6.303508120038117
 21
29.53575904212428
 31
0.0
  0
LINE
  5
AD0
330
8A5
100
AcDbEntity
  8
0
100
AcDbLine
 10
6.303508120038117
 20
29.53575904212428
 30
0.0
 11
6.302708120038117
 21
29.53535904212427
 31
0.0
  0
LINE
  5
AD1
330
8A5
100
AcDbEntity
  8
0
100
AcDbLine
 10
6.302708120038117
 20
29.53535904212427
 30
0.0
 11
6.302008120038124
 21
29.53505904212429
 31
0.0
  0
LINE
  5
AD2
330
8A5
100
AcDbEntity
  8
0
100
AcDbLine
 10
6.302008120038124
 20
29.53505904212429
 30
0.0
 11
6.301308120038115
 21
29.53465904212431
 31
0.0
  0
LINE
  5
AD3
330
8A5
100
AcDbEntity
  8
0
100
AcDbLine
 10
6.301308120038115
 20
29.53465904212431
 30
0.0
 11
6.300508120038116
 21
29.5343590421243
 31
0.0
  0
LINE
  5
AD4
330
8A5
100
AcDbEntity
  8
0
100
AcDbLine
 10
6.300508120038116
 20
29.5343590421243
 30
0.0
 11
6.299808120038107
 21
29.53395904212428
 31
0.0
  0
LINE
  5
AD5
330
8A5
100
AcDbEntity
  8
0
100
AcDbLine
 10
6.299808120038107
 20
29.53395904212428
 30
0.0
 11
6.299108120038112
 21
29.53365904212427
 31
0.0
  0
LINE
  5
AD6
330
8A5
100
AcDbEntity
  8
0
100
AcDbLine
 10
6.299108120038112
 20
29.53365904212427
 30
0.0
 11
6.298308120038115
 21
29.53325904212429
 31
0.0
  0
LINE
  5
AD7
330
8A5
100
AcDbEntity
  8
0
100
AcDbLine
 10
6.298308120038115
 20
29.53325904212429
 30
0.0
 11
6.297608120038119
 21
29.5329590421243
 31
0.0
  0
LINE
  5
AD8
330
8A5
100
AcDbEntity
  8
0
100
AcDbLine
 10
6.297608120038119
 20
29.5329590421243
 30
0.0
 11
6.296808120038122
 21
29.53255904212429
 31
0.0
  0
LINE
  5
AD9
330
8A5
100
AcDbEntity
  8
0
100
AcDbLine
 10
6.296808120038122
 20
29.53255904212429
 30
0.0
 11
6.296108120038128
 21
29.53225904212431
 31
0.0
  0
LINE
  5
ADA
330
8A5
100
AcDbEntity
  8
0
100
AcDbLine
 10
6.296108120038128
 20
29.53225904212431
 30
0.0
 11
6.295408120038117
 21
29.53195904212427
 31
0.0
  0
LINE
  5
ADB
330
8A5
100
AcDbEntity
  8
0
100
AcDbLine
 10
6.295408120038117
 20
29.53195904212427
 30
0.0
 11
6.294608120038119
 21
29.53155904212429
 31
0.0
  0
LINE
  5
ADC
330
8A5
100
AcDbEntity
  8
0
100
AcDbLine
 10
6.294608120038119
 20
29.53155904212429
 30
0.0
 11
6.293908120038111
 21
29.53125904212427
 31
0.0
  0
LINE
  5
ADD
330
8A5
100
AcDbEntity
  8
0
100
AcDbLine
 10
6.293908120038111
 20
29.53125904212427
 30
0.0
 11
6.293108120038112
 21
29.53085904212426
 31
0.0
  0
LINE
  5
ADE
330
8A5
100
AcDbEntity
  8
0
100
AcDbLine
 10
6.293108120038112
 20
29.53085904212426
 30
0.0
 11
6.292408120038117
 21
29.53055904212428
 31
0.0
  0
LINE
  5
ADF
330
8A5
100
AcDbEntity
  8
0
100
AcDbLine
 10
6.292408120038117
 20
29.53055904212428
 30
0.0
 11
6.29170812003812
 21
29.5301590421243
 31
0.0
  0
LINE
  5
AE0
330
8A5
100
AcDbEntity
  8
0
100
AcDbLine
 10
6.29170812003812
 20
29.5301590421243
 30
0.0
 11
6.290908120038125
 21
29.52985904212429
 31
0.0
  0
LINE
  5
AE1
330
8A5
100
AcDbEntity
  8
0
100
AcDbLine
 10
6.290908120038125
 20
29.52985904212429
 30
0.0
 11
6.290208120038116
 21
29.52945904212427
 31
0.0
  0
LINE
  5
AE2
330
8A5
100
AcDbEntity
  8
0
100
AcDbLine
 10
6.290208120038116
 20
29.52945904212427
 30
0.0
 11
6.289508120038119
 21
29.52915904212429
 31
0.0
  0
LINE
  5
AE3
330
8A5
100
AcDbEntity
  8
0
100
AcDbLine
 10
6.289508120038119
 20
29.52915904212429
 30
0.0
 11
6.288708120038107
 21
29.52875904212428
 31
0.0
  0
LINE
  5
AE4
330
8A5
100
AcDbEntity
  8
0
100
AcDbLine
 10
6.288708120038107
 20
29.52875904212428
 30
0.0
 11
6.288008120038112
 21
29.5284590421243
 31
0.0
  0
LINE
  5
AE5
330
8A5
100
AcDbEntity
  8
0
100
AcDbLine
 10
6.288008120038112
 20
29.5284590421243
 30
0.0
 11
6.287208120038116
 21
29.52805904212429
 31
0.0
  0
ARC
  5
AE6
330
8A5
100
AcDbEntity
  8
0
100
AcDbCircle
 10
6.163118673129048
 20
29.9506058894811
 30
0.0
 40
0.436765117664736
100
AcDbArc
 50
299.9239729999997
 51
53.35929173076127
  0
LINE
  5
AE7
330
8A5
100
AcDbEntity
  8
0
100
AcDbLine
 10
3.568488120038125
 20
29.57205904212427
 30
0.0
 11
3.569228120038118
 21
29.57175904212429
 31
0.0
  0
LINE
  5
AE8
330
8A5
100
AcDbEntity
  8
0
100
AcDbLine
 10
3.569228120038118
 20
29.57175904212429
 30
0.0
 11
3.569968120038126
 21
29.57135904212427
 31
0.0
  0
LINE
  5
AE9
330
8A5
100
AcDbEntity
  8
0
100
AcDbLine
 10
3.569968120038126
 20
29.57135904212427
 30
0.0
 11
3.570698120038116
 21
29.57105904212429
 31
0.0
  0
LINE
  5
AEA
330
8A5
100
AcDbEntity
  8
0
100
AcDbLine
 10
3.570698120038116
 20
29.57105904212429
 30
0.0
 11
3.571438120038123
 21
29.57065904212428
 31
0.0
  0
LINE
  5
AEB
330
8A5
100
AcDbEntity
  8
0
100
AcDbLine
 10
3.571438120038123
 20
29.57065904212428
 30
0.0
 11
3.572178120038115
 21
29.5703590421243
 31
0.0
  0
LINE
  5
AEC
330
8A5
100
AcDbEntity
  8
0
100
AcDbLine
 10
3.572178120038115
 20
29.5703590421243
 30
0.0
 11
3.57291812003811
 21
29.56995904212428
 31
0.0
  0
LINE
  5
AED
330
8A5
100
AcDbEntity
  8
0
100
AcDbLine
 10
3.57291812003811
 20
29.56995904212428
 30
0.0
 11
3.573658120038118
 21
29.5696590421243
 31
0.0
  0
LINE
  5
AEE
330
8A5
100
AcDbEntity
  8
0
100
AcDbLine
 10
3.573658120038118
 20
29.5696590421243
 30
0.0
 11
3.574398120038123
 21
29.56925904212429
 31
0.0
  0
LINE
  5
AEF
330
8A5
100
AcDbEntity
  8
0
100
AcDbLine
 10
3.574398120038123
 20
29.56925904212429
 30
0.0
 11
3.575128120038115
 21
29.56895904212428
 31
0.0
  0
LINE
  5
AF0
330
8A5
100
AcDbEntity
  8
0
100
AcDbLine
 10
3.575128120038115
 20
29.56895904212428
 30
0.0
 11
3.575868120038107
 21
29.56855904212429
 31
0.0
  0
LINE
  5
AF1
330
8A5
100
AcDbEntity
  8
0
100
AcDbLine
 10
3.575868120038107
 20
29.56855904212429
 30
0.0
 11
3.576608120038116
 21
29.56825904212431
 31
0.0
  0
LINE
  5
AF2
330
8A5
100
AcDbEntity
  8
0
100
AcDbLine
 10
3.576608120038116
 20
29.56825904212431
 30
0.0
 11
3.577348120038123
 21
29.56795904212427
 31
0.0
  0
LINE
  5
AF3
330
8A5
100
AcDbEntity
  8
0
100
AcDbLine
 10
3.577348120038123
 20
29.56795904212427
 30
0.0
 11
3.578088120038116
 21
29.56755904212429
 31
0.0
  0
LINE
  5
AF4
330
8A5
100
AcDbEntity
  8
0
100
AcDbLine
 10
3.578088120038116
 20
29.56755904212429
 30
0.0
 11
3.578818120038121
 21
29.56725904212428
 31
0.0
  0
LINE
  5
AF5
330
8A5
100
AcDbEntity
  8
0
100
AcDbLine
 10
3.578818120038121
 20
29.56725904212428
 30
0.0
 11
3.579558120038115
 21
29.56685904212426
 31
0.0
  0
LINE
  5
AF6
330
8A5
100
AcDbEntity
  8
0
100
AcDbLine
 10
3.579558120038115
 20
29.56685904212426
 30
0.0
 11
3.580298120038122
 21
29.56655904212428
 31
0.0
  0
LINE
  5
AF7
330
8A5
100
AcDbEntity
  8
0
100
AcDbLine
 10
3.580298120038122
 20
29.56655904212428
 30
0.0
 11
3.581038120038115
 21
29.56615904212427
 31
0.0
  0
LINE
  5
AF8
330
8A5
100
AcDbEntity
  8
0
100
AcDbLine
 10
3.581038120038115
 20
29.56615904212427
 30
0.0
 11
3.581778120038107
 21
29.56585904212429
 31
0.0
  0
LINE
  5
AF9
330
8A5
100
AcDbEntity
  8
0
100
AcDbLine
 10
3.581778120038107
 20
29.56585904212429
 30
0.0
 11
3.582518120038115
 21
29.5654590421243
 31
0.0
  0
LINE
  5
AFA
330
8A5
100
AcDbEntity
  8
0
100
AcDbLine
 10
3.582518120038115
 20
29.5654590421243
 30
0.0
 11
3.58324812003812
 21
29.56515904212429
 31
0.0
  0
LINE
  5
AFB
330
8A5
100
AcDbEntity
  8
0
100
AcDbLine
 10
3.58324812003812
 20
29.56515904212429
 30
0.0
 11
3.583988120038128
 21
29.56475904212428
 31
0.0
  0
LINE
  5
AFC
330
8A5
100
AcDbEntity
  8
0
100
AcDbLine
 10
3.583988120038128
 20
29.56475904212428
 30
0.0
 11
3.584728120038121
 21
29.56445904212427
 31
0.0
  0
LINE
  5
AFD
330
8A5
100
AcDbEntity
  8
0
100
AcDbLine
 10
3.584728120038121
 20
29.56445904212427
 30
0.0
 11
3.585468120038115
 21
29.56405904212429
 31
0.0
  0
LINE
  5
AFE
330
8A5
100
AcDbEntity
  8
0
100
AcDbLine
 10
3.585468120038115
 20
29.56405904212429
 30
0.0
 11
3.586208120038121
 21
29.56375904212431
 31
0.0
  0
LINE
  5
AFF
330
8A5
100
AcDbEntity
  8
0
100
AcDbLine
 10
3.586208120038121
 20
29.56375904212431
 30
0.0
 11
3.586938120038126
 21
29.5634590421243
 31
0.0
  0
LINE
  5
B00
330
8A5
100
AcDbEntity
  8
0
100
AcDbLine
 10
3.586938120038126
 20
29.5634590421243
 30
0.0
 11
3.58767812003812
 21
29.56305904212431
 31
0.0
  0
LINE
  5
B01
330
8A5
100
AcDbEntity
  8
0
100
AcDbLine
 10
3.58767812003812
 20
29.56305904212431
 30
0.0
 11
3.588418120038113
 21
29.56275904212427
 31
0.0
  0
LINE
  5
B02
330
8A5
100
AcDbEntity
  8
0
100
AcDbLine
 10
3.588418120038113
 20
29.56275904212427
 30
0.0
 11
3.589158120038121
 21
29.56235904212429
 31
0.0
  0
LINE
  5
B03
330
8A5
100
AcDbEntity
  8
0
100
AcDbLine
 10
3.589158120038121
 20
29.56235904212429
 30
0.0
 11
3.589898120038126
 21
29.5620590421243
 31
0.0
  0
LINE
  5
B04
330
8A5
100
AcDbEntity
  8
0
100
AcDbLine
 10
3.589898120038126
 20
29.5620590421243
 30
0.0
 11
3.590638120038121
 21
29.56165904212426
 31
0.0
  0
LINE
  5
B05
330
8A5
100
AcDbEntity
  8
0
100
AcDbLine
 10
3.590638120038121
 20
29.56165904212426
 30
0.0
 11
3.591368120038126
 21
29.56135904212428
 31
0.0
  0
LINE
  5
B06
330
8A5
100
AcDbEntity
  8
0
100
AcDbLine
 10
3.591368120038126
 20
29.56135904212428
 30
0.0
 11
3.592108120038118
 21
29.5609590421243
 31
0.0
  0
LINE
  5
B07
330
8A5
100
AcDbEntity
  8
0
100
AcDbLine
 10
3.592108120038118
 20
29.5609590421243
 30
0.0
 11
3.592848120038126
 21
29.56065904212429
 31
0.0
  0
LINE
  5
B08
330
8A5
100
AcDbEntity
  8
0
100
AcDbLine
 10
3.592848120038126
 20
29.56065904212429
 30
0.0
 11
3.59358812003812
 21
29.5602590421243
 31
0.0
  0
LINE
  5
B09
330
8A5
100
AcDbEntity
  8
0
100
AcDbLine
 10
3.59358812003812
 20
29.5602590421243
 30
0.0
 11
3.594328120038113
 21
29.55995904212429
 31
0.0
  0
LINE
  5
B0A
330
8A5
100
AcDbEntity
  8
0
100
AcDbLine
 10
3.594328120038113
 20
29.55995904212429
 30
0.0
 11
3.595058120038115
 21
29.55955904212428
 31
0.0
  0
LINE
  5
B0B
330
8A5
100
AcDbEntity
  8
0
100
AcDbLine
 10
3.595058120038115
 20
29.55955904212428
 30
0.0
 11
3.595798120038125
 21
29.5592590421243
 31
0.0
  0
LINE
  5
B0C
330
8A5
100
AcDbEntity
  8
0
100
AcDbLine
 10
3.595798120038125
 20
29.5592590421243
 30
0.0
 11
3.596538120038118
 21
29.55895904212429
 31
0.0
  0
LINE
  5
B0D
330
8A5
100
AcDbEntity
  8
0
100
AcDbLine
 10
3.596538120038118
 20
29.55895904212429
 30
0.0
 11
3.597278120038126
 21
29.5585590421243
 31
0.0
  0
LINE
  5
B0E
330
8A5
100
AcDbEntity
  8
0
100
AcDbLine
 10
3.597278120038126
 20
29.5585590421243
 30
0.0
 11
3.598018120038118
 21
29.55825904212426
 31
0.0
  0
LINE
  5
B0F
330
8A5
100
AcDbEntity
  8
0
100
AcDbLine
 10
3.598018120038118
 20
29.55825904212426
 30
0.0
 11
3.598758120038126
 21
29.55785904212428
 31
0.0
  0
LINE
  5
B10
330
8A5
100
AcDbEntity
  8
0
100
AcDbLine
 10
3.598758120038126
 20
29.55785904212428
 30
0.0
 11
3.599488120038115
 21
29.5575590421243
 31
0.0
  0
LINE
  5
B11
330
8A5
100
AcDbEntity
  8
0
100
AcDbLine
 10
3.599488120038115
 20
29.5575590421243
 30
0.0
 11
3.600228120038122
 21
29.55715904212429
 31
0.0
  0
LINE
  5
B12
330
8A5
100
AcDbEntity
  8
0
100
AcDbLine
 10
3.600228120038122
 20
29.55715904212429
 30
0.0
 11
3.600968120038118
 21
29.5568590421243
 31
0.0
  0
LINE
  5
B13
330
8A5
100
AcDbEntity
  8
0
100
AcDbLine
 10
3.600968120038118
 20
29.5568590421243
 30
0.0
 11
3.601708120038125
 21
29.55645904212429
 31
0.0
  0
LINE
  5
B14
330
8A5
100
AcDbEntity
  8
0
100
AcDbLine
 10
3.601708120038125
 20
29.55645904212429
 30
0.0
 11
3.602448120038118
 21
29.55615904212428
 31
0.0
  0
LINE
  5
B15
330
8A5
100
AcDbEntity
  8
0
100
AcDbLine
 10
3.602448120038118
 20
29.55615904212428
 30
0.0
 11
3.603178120038109
 21
29.55575904212429
 31
0.0
  0
LINE
  5
B16
330
8A5
100
AcDbEntity
  8
0
100
AcDbLine
 10
3.603178120038109
 20
29.55575904212429
 30
0.0
 11
3.603918120038116
 21
29.55545904212428
 31
0.0
  0
LINE
  5
B17
330
8A5
100
AcDbEntity
  8
0
100
AcDbLine
 10
3.603918120038116
 20
29.55545904212428
 30
0.0
 11
3.604658120038123
 21
29.55505904212427
 31
0.0
  0
LINE
  5
B18
330
8A5
100
AcDbEntity
  8
0
100
AcDbLine
 10
3.604658120038123
 20
29.55505904212427
 30
0.0
 11
3.605398120038115
 21
29.55475904212429
 31
0.0
  0
LINE
  5
B19
330
8A5
100
AcDbEntity
  8
0
100
AcDbLine
 10
3.605398120038115
 20
29.55475904212429
 30
0.0
 11
3.606138120038123
 21
29.55445904212428
 31
0.0
  0
LINE
  5
B1A
330
8A5
100
AcDbEntity
  8
0
100
AcDbLine
 10
3.606138120038123
 20
29.55445904212428
 30
0.0
 11
3.606878120038118
 21
29.5540590421243
 31
0.0
  0
LINE
  5
B1B
330
8A5
100
AcDbEntity
  8
0
100
AcDbLine
 10
3.606878120038118
 20
29.5540590421243
 30
0.0
 11
3.607608120038122
 21
29.55375904212429
 31
0.0
  0
LINE
  5
B1C
330
8A5
100
AcDbEntity
  8
0
100
AcDbLine
 10
3.607608120038122
 20
29.55375904212429
 30
0.0
 11
3.608348120038101
 21
29.55335904212427
 31
0.0
  0
LINE
  5
B1D
330
8A5
100
AcDbEntity
  8
0
100
AcDbLine
 10
3.608348120038101
 20
29.55335904212427
 30
0.0
 11
3.609088120038107
 21
29.55305904212429
 31
0.0
  0
LINE
  5
B1E
330
8A5
100
AcDbEntity
  8
0
100
AcDbLine
 10
3.609088120038107
 20
29.55305904212429
 30
0.0
 11
3.609828120038116
 21
29.55265904212428
 31
0.0
  0
LINE
  5
B1F
330
8A5
100
AcDbEntity
  8
0
100
AcDbLine
 10
3.609828120038116
 20
29.55265904212428
 30
0.0
 11
3.610568120038123
 21
29.55235904212428
 31
0.0
  0
LINE
  5
B20
330
8A5
100
AcDbEntity
  8
0
100
AcDbLine
 10
3.610568120038123
 20
29.55235904212428
 30
0.0
 11
3.611308120038116
 21
29.55195904212431
 31
0.0
  0
LINE
  5
B21
330
8A5
100
AcDbEntity
  8
0
100
AcDbLine
 10
3.611308120038116
 20
29.55195904212431
 30
0.0
 11
3.612038120038121
 21
29.55165904212427
 31
0.0
  0
LINE
  5
B22
330
8A5
100
AcDbEntity
  8
0
100
AcDbLine
 10
3.612038120038121
 20
29.55165904212427
 30
0.0
 11
3.612778120038115
 21
29.55125904212429
 31
0.0
  0
LINE
  5
B23
330
8A5
100
AcDbEntity
  8
0
100
AcDbLine
 10
3.612778120038115
 20
29.55125904212429
 30
0.0
 11
3.613518120038122
 21
29.55095904212427
 31
0.0
  0
LINE
  5
B24
330
8A5
100
AcDbEntity
  8
0
100
AcDbLine
 10
3.613518120038122
 20
29.55095904212427
 30
0.0
 11
3.614258120038101
 21
29.55055904212427
 31
0.0
  0
LINE
  5
B25
330
8A5
100
AcDbEntity
  8
0
100
AcDbLine
 10
3.614258120038101
 20
29.55055904212427
 30
0.0
 11
3.614998120038107
 21
29.55025904212428
 31
0.0
  0
LINE
  5
B26
330
8A5
100
AcDbEntity
  8
0
100
AcDbLine
 10
3.614998120038107
 20
29.55025904212428
 30
0.0
 11
3.615728120038113
 21
29.5499590421243
 31
0.0
  0
LINE
  5
B27
330
8A5
100
AcDbEntity
  8
0
100
AcDbLine
 10
3.615728120038113
 20
29.5499590421243
 30
0.0
 11
3.616468120038121
 21
29.54955904212429
 31
0.0
  0
LINE
  5
B28
330
8A5
100
AcDbEntity
  8
0
100
AcDbLine
 10
3.616468120038121
 20
29.54955904212429
 30
0.0
 11
3.617208120038128
 21
29.54925904212428
 31
0.0
  0
LINE
  5
B29
330
8A5
100
AcDbEntity
  8
0
100
AcDbLine
 10
3.617208120038128
 20
29.54925904212428
 30
0.0
 11
3.617948120038121
 21
29.54885904212429
 31
0.0
  0
LINE
  5
B2A
330
8A5
100
AcDbEntity
  8
0
100
AcDbLine
 10
3.617948120038121
 20
29.54885904212429
 30
0.0
 11
3.618688120038115
 21
29.54855904212431
 31
0.0
  0
LINE
  5
B2B
330
8A5
100
AcDbEntity
  8
0
100
AcDbLine
 10
3.618688120038115
 20
29.54855904212431
 30
0.0
 11
3.619428120038121
 21
29.54815904212427
 31
0.0
  0
LINE
  5
B2C
330
8A5
100
AcDbEntity
  8
0
100
AcDbLine
 10
3.619428120038121
 20
29.54815904212427
 30
0.0
 11
3.620158120038126
 21
29.54785904212429
 31
0.0
  0
LINE
  5
B2D
330
8A5
100
AcDbEntity
  8
0
100
AcDbLine
 10
3.620158120038126
 20
29.54785904212429
 30
0.0
 11
3.62089812003812
 21
29.5474590421243
 31
0.0
  0
LINE
  5
B2E
330
8A5
100
AcDbEntity
  8
0
100
AcDbLine
 10
3.62089812003812
 20
29.5474590421243
 30
0.0
 11
3.621638120038113
 21
29.54715904212426
 31
0.0
  0
LINE
  5
B2F
330
8A5
100
AcDbEntity
  8
0
100
AcDbLine
 10
3.621638120038113
 20
29.54715904212426
 30
0.0
 11
3.622378120038121
 21
29.54675904212428
 31
0.0
  0
LINE
  5
B30
330
8A5
100
AcDbEntity
  8
0
100
AcDbLine
 10
3.622378120038121
 20
29.54675904212428
 30
0.0
 11
3.623118120038126
 21
29.54645904212427
 31
0.0
  0
LINE
  5
B31
330
8A5
100
AcDbEntity
  8
0
100
AcDbLine
 10
3.623118120038126
 20
29.54645904212427
 30
0.0
 11
3.623848120038118
 21
29.54605904212428
 31
0.0
  0
LINE
  5
B32
330
8A5
100
AcDbEntity
  8
0
100
AcDbLine
 10
3.623848120038118
 20
29.54605904212428
 30
0.0
 11
3.624588120038111
 21
29.5457590421243
 31
0.0
  0
LINE
  5
B33
330
8A5
100
AcDbEntity
  8
0
100
AcDbLine
 10
3.624588120038111
 20
29.5457590421243
 30
0.0
 11
3.625328120038118
 21
29.54545904212429
 31
0.0
  0
LINE
  5
B34
330
8A5
100
AcDbEntity
  8
0
100
AcDbLine
 10
3.625328120038118
 20
29.54545904212429
 30
0.0
 11
3.626068120038126
 21
29.54505904212428
 31
0.0
  0
LINE
  5
B35
330
8A5
100
AcDbEntity
  8
0
100
AcDbLine
 10
3.626068120038126
 20
29.54505904212428
 30
0.0
 11
3.62680812003812
 21
29.54475904212428
 31
0.0
  0
LINE
  5
B36
330
8A5
100
AcDbEntity
  8
0
100
AcDbLine
 10
3.62680812003812
 20
29.54475904212428
 30
0.0
 11
3.627548120038111
 21
29.54435904212429
 31
0.0
  0
LINE
  5
B37
330
8A5
100
AcDbEntity
  8
0
100
AcDbLine
 10
3.627548120038111
 20
29.54435904212429
 30
0.0
 11
3.628278120038118
 21
29.54405904212431
 31
0.0
  0
LINE
  5
B38
330
8A5
100
AcDbEntity
  8
0
100
AcDbLine
 10
3.628278120038118
 20
29.54405904212431
 30
0.0
 11
3.629018120038125
 21
29.54365904212429
 31
0.0
  0
LINE
  5
B39
330
8A5
100
AcDbEntity
  8
0
100
AcDbLine
 10
3.629018120038125
 20
29.54365904212429
 30
0.0
 11
3.629758120038118
 21
29.54335904212431
 31
0.0
  0
LINE
  5
B3A
330
8A5
100
AcDbEntity
  8
0
100
AcDbLine
 10
3.629758120038118
 20
29.54335904212431
 30
0.0
 11
3.630498120038111
 21
29.54295904212429
 31
0.0
  0
LINE
  5
B3B
330
8A5
100
AcDbEntity
  8
0
100
AcDbLine
 10
3.630498120038111
 20
29.54295904212429
 30
0.0
 11
3.631238120038118
 21
29.54265904212429
 31
0.0
  0
LINE
  5
B3C
330
8A5
100
AcDbEntity
  8
0
100
AcDbLine
 10
3.631238120038118
 20
29.54265904212429
 30
0.0
 11
3.631968120038123
 21
29.5422590421243
 31
0.0
  0
LINE
  5
B3D
330
8A5
100
AcDbEntity
  8
0
100
AcDbLine
 10
3.631968120038123
 20
29.5422590421243
 30
0.0
 11
3.632708120038115
 21
29.54195904212426
 31
0.0
  0
LINE
  5
B3E
330
8A5
100
AcDbEntity
  8
0
100
AcDbLine
 10
3.632708120038115
 20
29.54195904212426
 30
0.0
 11
3.63344812003811
 21
29.54155904212428
 31
0.0
  0
LINE
  5
B3F
330
8A5
100
AcDbEntity
  8
0
100
AcDbLine
 10
3.63344812003811
 20
29.54155904212428
 30
0.0
 11
3.634188120038118
 21
29.5412590421243
 31
0.0
  0
LINE
  5
B40
330
8A5
100
AcDbEntity
  8
0
100
AcDbLine
 10
3.634188120038118
 20
29.5412590421243
 30
0.0
 11
3.634928120038123
 21
29.54095904212429
 31
0.0
  0
LINE
  5
B41
330
8A5
100
AcDbEntity
  8
0
100
AcDbLine
 10
3.634928120038123
 20
29.54095904212429
 30
0.0
 11
3.635668120038118
 21
29.5405590421243
 31
0.0
  0
LINE
  5
B42
330
8A5
100
AcDbEntity
  8
0
100
AcDbLine
 10
3.635668120038118
 20
29.5405590421243
 30
0.0
 11
3.636398120038109
 21
29.54025904212429
 31
0.0
  0
LINE
  5
B43
330
8A5
100
AcDbEntity
  8
0
100
AcDbLine
 10
3.636398120038109
 20
29.54025904212429
 30
0.0
 11
3.637138120038116
 21
29.53985904212428
 31
0.0
  0
LINE
  5
B44
330
8A5
100
AcDbEntity
  8
0
100
AcDbLine
 10
3.637138120038116
 20
29.53985904212428
 30
0.0
 11
3.637878120038123
 21
29.5395590421243
 31
0.0
  0
LINE
  5
B45
330
8A5
100
AcDbEntity
  8
0
100
AcDbLine
 10
3.637878120038123
 20
29.5395590421243
 30
0.0
 11
3.638618120038116
 21
29.53915904212428
 31
0.0
  0
LINE
  5
B46
330
8A5
100
AcDbEntity
  8
0
100
AcDbLine
 10
3.638618120038116
 20
29.53915904212428
 30
0.0
 11
3.63935812003811
 21
29.5388590421243
 31
0.0
  0
LINE
  5
B47
330
8A5
100
AcDbEntity
  8
0
100
AcDbLine
 10
3.63935812003811
 20
29.5388590421243
 30
0.0
 11
3.640098120038118
 21
29.53845904212429
 31
0.0
  0
LINE
  5
B48
330
8A5
100
AcDbEntity
  8
0
100
AcDbLine
 10
3.640098120038118
 20
29.53845904212429
 30
0.0
 11
3.640828120038122
 21
29.53815904212428
 31
0.0
  0
LINE
  5
B49
330
8A5
100
AcDbEntity
  8
0
100
AcDbLine
 10
3.640828120038122
 20
29.53815904212428
 30
0.0
 11
3.641568120038115
 21
29.53775904212429
 31
0.0
  0
LINE
  5
B4A
330
8A5
100
AcDbEntity
  8
0
100
AcDbLine
 10
3.641568120038115
 20
29.53775904212429
 30
0.0
 11
3.642308120038107
 21
29.53745904212428
 31
0.0
  0
LINE
  5
B4B
330
8A5
100
AcDbEntity
  8
0
100
AcDbLine
 10
3.642308120038107
 20
29.53745904212428
 30
0.0
 11
3.643048120038116
 21
29.53705904212427
 31
0.0
  0
LINE
  5
B4C
330
8A5
100
AcDbEntity
  8
0
100
AcDbLine
 10
3.643048120038116
 20
29.53705904212427
 30
0.0
 11
3.643788120038123
 21
29.53675904212429
 31
0.0
  0
LINE
  5
B4D
330
8A5
100
AcDbEntity
  8
0
100
AcDbLine
 10
3.643788120038123
 20
29.53675904212429
 30
0.0
 11
3.644518120038128
 21
29.53645904212428
 31
0.0
  0
LINE
  5
B4E
330
8A5
100
AcDbEntity
  8
0
100
AcDbLine
 10
3.644518120038128
 20
29.53645904212428
 30
0.0
 11
3.645258120038121
 21
29.53605904212429
 31
0.0
  0
LINE
  5
B4F
330
8A5
100
AcDbEntity
  8
0
100
AcDbLine
 10
3.645258120038121
 20
29.53605904212429
 30
0.0
 11
3.645998120038115
 21
29.53575904212428
 31
0.0
  0
LINE
  5
B50
330
8A5
100
AcDbEntity
  8
0
100
AcDbLine
 10
3.645998120038115
 20
29.53575904212428
 30
0.0
 11
3.646738120038122
 21
29.53535904212427
 31
0.0
  0
LINE
  5
B51
330
8A5
100
AcDbEntity
  8
0
100
AcDbLine
 10
3.646738120038122
 20
29.53535904212427
 30
0.0
 11
3.647478120038115
 21
29.53505904212429
 31
0.0
  0
LINE
  5
B52
330
8A5
100
AcDbEntity
  8
0
100
AcDbLine
 10
3.647478120038115
 20
29.53505904212429
 30
0.0
 11
3.648218120038107
 21
29.53465904212431
 31
0.0
  0
LINE
  5
B53
330
8A5
100
AcDbEntity
  8
0
100
AcDbLine
 10
3.648218120038107
 20
29.53465904212431
 30
0.0
 11
3.648948120038113
 21
29.5343590421243
 31
0.0
  0
LINE
  5
B54
330
8A5
100
AcDbEntity
  8
0
100
AcDbLine
 10
3.648948120038113
 20
29.5343590421243
 30
0.0
 11
3.649688120038121
 21
29.53395904212428
 31
0.0
  0
LINE
  5
B55
330
8A5
100
AcDbEntity
  8
0
100
AcDbLine
 10
3.649688120038121
 20
29.53395904212428
 30
0.0
 11
3.650428120038098
 21
29.53365904212427
 31
0.0
  0
LINE
  5
B56
330
8A5
100
AcDbEntity
  8
0
100
AcDbLine
 10
3.650428120038098
 20
29.53365904212427
 30
0.0
 11
3.651168120038121
 21
29.53325904212429
 31
0.0
  0
LINE
  5
B57
330
8A5
100
AcDbEntity
  8
0
100
AcDbLine
 10
3.651168120038121
 20
29.53325904212429
 30
0.0
 11
3.651908120038115
 21
29.5329590421243
 31
0.0
  0
LINE
  5
B58
330
8A5
100
AcDbEntity
  8
0
100
AcDbLine
 10
3.651908120038115
 20
29.5329590421243
 30
0.0
 11
3.652638120038118
 21
29.53255904212429
 31
0.0
  0
LINE
  5
B59
330
8A5
100
AcDbEntity
  8
0
100
AcDbLine
 10
3.652638120038118
 20
29.53255904212429
 30
0.0
 11
3.653378120038126
 21
29.53225904212431
 31
0.0
  0
LINE
  5
B5A
330
8A5
100
AcDbEntity
  8
0
100
AcDbLine
 10
3.653378120038126
 20
29.53225904212431
 30
0.0
 11
3.65411812003812
 21
29.53195904212427
 31
0.0
  0
LINE
  5
B5B
330
8A5
100
AcDbEntity
  8
0
100
AcDbLine
 10
3.65411812003812
 20
29.53195904212427
 30
0.0
 11
3.654858120038113
 21
29.53155904212429
 31
0.0
  0
LINE
  5
B5C
330
8A5
100
AcDbEntity
  8
0
100
AcDbLine
 10
3.654858120038113
 20
29.53155904212429
 30
0.0
 11
3.655598120038121
 21
29.53125904212427
 31
0.0
  0
LINE
  5
B5D
330
8A5
100
AcDbEntity
  8
0
100
AcDbLine
 10
3.655598120038121
 20
29.53125904212427
 30
0.0
 11
3.656338120038126
 21
29.53085904212426
 31
0.0
  0
LINE
  5
B5E
330
8A5
100
AcDbEntity
  8
0
100
AcDbLine
 10
3.656338120038126
 20
29.53085904212426
 30
0.0
 11
3.657068120038118
 21
29.53055904212428
 31
0.0
  0
LINE
  5
B5F
330
8A5
100
AcDbEntity
  8
0
100
AcDbLine
 10
3.657068120038118
 20
29.53055904212428
 30
0.0
 11
3.657808120038126
 21
29.5301590421243
 31
0.0
  0
LINE
  5
B60
330
8A5
100
AcDbEntity
  8
0
100
AcDbLine
 10
3.657808120038126
 20
29.5301590421243
 30
0.0
 11
3.658548120038118
 21
29.52985904212429
 31
0.0
  0
LINE
  5
B61
330
8A5
100
AcDbEntity
  8
0
100
AcDbLine
 10
3.658548120038118
 20
29.52985904212429
 30
0.0
 11
3.659288120038126
 21
29.52945904212427
 31
0.0
  0
LINE
  5
B62
330
8A5
100
AcDbEntity
  8
0
100
AcDbLine
 10
3.659288120038126
 20
29.52945904212427
 30
0.0
 11
3.660028120038118
 21
29.52915904212429
 31
0.0
  0
LINE
  5
B63
330
8A5
100
AcDbEntity
  8
0
100
AcDbLine
 10
3.660028120038118
 20
29.52915904212429
 30
0.0
 11
3.660758120038122
 21
29.52875904212428
 31
0.0
  0
LINE
  5
B64
330
8A5
100
AcDbEntity
  8
0
100
AcDbLine
 10
3.660758120038122
 20
29.52875904212428
 30
0.0
 11
3.661498120038118
 21
29.5284590421243
 31
0.0
  0
LINE
  5
B65
330
8A5
100
AcDbEntity
  8
0
100
AcDbLine
 10
3.661498120038118
 20
29.5284590421243
 30
0.0
 11
3.662238120038125
 21
29.52805904212429
 31
0.0
  0
LINE
  5
B66
330
8A5
100
AcDbEntity
  8
0
100
AcDbLine
 10
6.724743360145595
 20
40.83181977901185
 30
0.0
 11
7.449743360145587
 21
40.83181977901188
 31
0.0
  0
LINE
  5
B67
330
8A5
100
AcDbEntity
  8
0
100
AcDbLine
 10
3.224743360145595
 20
30.77420288918077
 30
0.0
 11
3.224743360145595
 21
40.83181977901185
 31
0.0
  0
ARC
  5
B68
330
8A5
100
AcDbEntity
  8
0
  6
Continuous
100
AcDbCircle
 10
3.496009588454796
 20
30.3401225647321
 30
0.0
 40
0.0490678608924327
100
AcDbArc
 50
307.2480729169194
 51
67.70943997213483
  0
ARC
  5
B69
330
8A5
100
AcDbEntity
  8
0
100
AcDbCircle
 10
3.66898577390819
 20
30.85713203908529
 30
0.0
 40
0.4962216522398872
100
AcDbArc
 50
244.8857677903849
 51
251.878404024225
  0
LINE
  5
B6A
330
8A5
100
AcDbEntity
  8
0
100
AcDbLine
 10
3.458377220724996
 20
30.64833888089535
 30
0.0
 11
3.458377220724996
 21
30.40782149449754
 31
0.0
  0
LINE
  5
B6B
330
8A5
100
AcDbEntity
  8
0
100
AcDbLine
 10
2.4997433601456
 20
31.16477729385238
 30
0.0
 11
3.458377181354903
 21
30.64833890210494
 31
0.0
  0
LINE
  5
B6C
330
8A5
100
AcDbEntity
  8
0
100
AcDbLine
 10
3.224743360145595
 20
40.83181977901185
 30
0.0
 11
2.4997433601456
 21
40.83181977901185
 31
0.0
  0
LINE
  5
B6D
330
8A5
100
AcDbEntity
  8
0
100
AcDbLine
 10
2.4997433601456
 20
40.83181977901185
 30
0.0
 11
2.4997433601456
 21
31.16477729385235
 31
0.0
  0
LINE
  5
B6E
330
8A5
100
AcDbEntity
  8
0
100
AcDbLine
 10
7.449743360145587
 20
40.83181977901185
 30
0.0
 11
7.449743360145587
 21
31.16477729385235
 31
0.0
  0
LINE
  5
B6F
330
8A5
100
AcDbEntity
  8
0
100
AcDbLine
 10
2.4997433601456
 20
8.868772417043466
 30
0.0
 11
2.4997433601456
 21
4.413759155585045
 31
0.0
  0
LINE
  5
B70
330
8A5
100
AcDbEntity
  8
0
100
AcDbLine
 10
7.449743360145587
 20
8.868772417043523
 30
0.0
 11
7.449743360145587
 21
4.413759155585103
 31
0.0
  0
LINE
  5
B71
330
8A5
100
AcDbEntity
  8
0
100
AcDbLine
 10
4.974743360145593
 20
0.3318197790118589
 30
0.0
 11
6.099743360145595
 21
0.3318197790118589
 31
0.0
  0
DIMENSION
  5
B72
330
8A5
100
AcDbEntity
  8
0
100
AcDbDimension
  2
*D14
 10
6.724743360145595
 20
42.08876276223821
 30
0.0
 11
4.974743360145593
 21
42.08876276223821
 31
0.0
 12
75.18400053237184
 22
-2.824026916893586
 32
0.0
 71
     5
 42
3.5
  3
OWP Standard
100
AcDbAlignedDimension
 13
3.224743360145595
 23
40.83181977901185
 33
0.0
 14
6.724743360145595
 24
40.83181977901185
 34
0.0
100
AcDbRotatedDimension
  0
DIMENSION
  5
B73
330
8A5
100
AcDbEntity
  8
0
100
AcDbDimension
  2
*D15
 10
0.9999998996316604
 20
31.16477729385235
 30
0.0
 11
0.9999998996316463
 21
35.9982985364321
 31
0.0
 12
75.18400053237184
 22
-2.824026916893586
 32
0.0
 71
     5
 42
9.667042485159498
  3
OWP Standard
100
AcDbAlignedDimension
 13
2.4997433601456
 23
40.83181977901185
 33
0.0
 14
2.4997433601456
 24
31.16477729385235
 34
0.0
 50
90.0
100
AcDbRotatedDimension
  0
DIMENSION
  5
B74
330
8A5
100
AcDbEntity
  8
0
100
AcDbDimension
  2
*D16
 10
0.9999998996316463
 20
8.868772417043466
 30
0.0
 11
0.9999998996316463
 21
20.0167748554479
 31
0.0
 12
75.18400053237184
 22
-2.824026916893586
 32
0.0
 71
     5
 42
22.29600487680889
  3
OWP Standard
100
AcDbAlignedDimension
 13
2.4997433601456
 23
31.16477729385235
 33
0.0
 14
2.4997433601456
 24
8.868772417043466
 34
0.0
 50
90.0
100
AcDbRotatedDimension
1001
ACAD
1000
DSTYLE
1002
{
1070
   279
1070
     1
1002
}
  0
DIMENSION
  5
B75
330
8A5
100
AcDbEntity
  8
0
100
AcDbDimension
  2
*D17
 10
0.9999998996316463
 20
4.413759155585046
 30
0.0
 11
0.9999998996316463
 21
6.641265786314246
 31
0.0
 12
75.18400053237184
 22
-2.824026916893586
 32
0.0
 71
     5
 42
4.455013261458416
  3
OWP Standard
100
AcDbAlignedDimension
 13
2.4997433601456
 23
8.868772417043466
 33
0.0
 14
2.4997433601456
 24
4.413759155585045
 34
0.0
 50
90.0
100
AcDbRotatedDimension
1001
ACAD
1000
DSTYLE
1002
{
1070
   279
1070
     1
1002
}
  0
DIMENSION
  5
B76
330
8A5
100
AcDbEntity
  8
0
100
AcDbDimension
  2
*D18
 10
0.9999998996316463
 20
0.3318197790118593
 30
0.0
 11
0.9999998996316463
 21
2.372789467298439
 31
0.0
 12
75.18400053237184
 22
-2.824026916893586
 32
0.0
 71
     5
 42
4.081939376573187
  3
OWP Standard
100
AcDbAlignedDimension
 13
2.4997433601456
 23
4.413759155585045
 33
0.0
 14
3.849743360145595
 24
0.3318197790118589
 34
0.0
 50
90.0
100
AcDbRotatedDimension
1001
ACAD
1000
DSTYLE
1002
{
1070
   279
1070
     1
1002
}
  0
TEXT
  5
B77
330
8A5
100
AcDbEntity
  8
0
100
AcDbText
 10
3.994039306014968
 20
43.308692577413
 30
0.0
 40
0.6111339610691289
  1
1571
100
AcDbText
  0
ENDBLK
  5
B79
330
8A5
100
AcDbEntity
  8
0
100
AcDbBlockEnd
  0
ENDSEC
  0
SECTION
  2
ENTITIES
  0
3DSOLID
  5
CBB
330
1F
100
AcDbEntity
  8
0
100
AcDbModelerGeometry
 70
     1
  1
koo jof n o         
  1
ni ^ *+0;:,4 ^ *+0\^ [ nf ^ LR mnjqoqoqkmnk QK o  
  1
mjqlffffffffffffff fqfffffffffffffffj:rooh n:rono 
  1
=0;& {rn {n {rn {rn |
  1
3*2/ {rn {rn {m {o |
  1
,7:33 {rn {rn {rn {l {rn {n |
  1
9><: {k {j {i {m {rn {h 90-(>-; ,6183: |
  1
/:-,*=:1+r><>;L036;W6,+0-&r>++-6= {rn {rn {rn {l n k l o |
  1
9><: {g {f {no {m {rn {h 90-(>-; ,6183: |
  1
300/ {rn {rn {nn {l |
  1
/3>1:r,*-9><: {rn kmqmj kiqkngihnjnlfhfilf o n rnqglifofjlohlljijf:roni o o o n 90-(>-;@) V V V V |
  1
/:-,*=:1+r><>;L036;W6,+0-&r>++-6= {rn {rn {rn {j n k l o |
  1
9><: {nm {nl {nk {m {rn {nj 90-(>-; ,6183: |
  1
300/ {rn {rn {ni {j |
  1
<0:;8: {rn {nh {ng {nf {mo 90-(>-; {i {rn |
  1
/:-,*=:1+r><>;L036;W6,+0-&r>++-6= {rn {rn {rn {f n k nooooooooo m |
  1
9><: {mn {mm {ml {m {rn {nj 90-(>-; ,6183: |
  1
300/ {rn {rn {mk {f |
  1
/3>1:r,*-9><: {rn koqkfffffffffffffl miqnigihnjnlfhfilf lqj o o n rnqglifofjlohlljijf:roni rn o 90-(>-;@) V V V V |
  1
<0:;8: {rn {mj {mi {mh {mg 90-(>-; {no {rn |
  1
<0:;8: {rn {mf {nn {lo {ln 90-(>-; {i {rn |
  1
<0:;8: {rn {nn {mf {lm {ll 90-(>-; {i {rn |
  1
<0:;8: {rn {lk {lj {nn {mo -:):-,:; {li {rn |
  1
:;8: {rn {lh {lg {nf {lf 90-(>-; |
  1
/:-,*=:1+r><>;L036;W6,+0-&r>++-6= {rn {rn {rn {nl n k nooooooooo m |
  1
9><: {ko {kn {km {m {rn {kl -:):-,:; ,6183: |
  1
300/ {rn {rn {kk {nl |
  1
<0:;8: {rn {lm {kj {lk {ki 90-(>-; {nk {rn |
  1
<0:;8: {rn {kh {ni {kg {kf 90-(>-; {no {rn |
  1
<0:;8: {rn {ni {kh {jo {jn 90-(>-; {no {rn |
  1
<0:;8: {rn {jm {jl {ni {mg -:):-,:; {jk {rn |
  1
:;8: {rn {jj {ji {mh {jh 90-(>-; |
  1
<0:;8: {rn {ng {nh {jg {jf 90-(>-; {i {rn |
  1
<0:;8: {rn {io {in {nh {ln -:):-,:; {km {rn |
  1
:;8: {rn {lg {im {nh {il 90-(>-; |
  1
<0:;8: {rn {ik {mk {ng {ll -:):-,:; {nk {rn |
  1
:;8: {rn {ij {lh {ng {ii 90-(>-; |
  1
<0:;8: {rn {ih {nf {mk {ki -:):-,:; {li {rn |
  1
<0:;8: {rn {nf {ih {io {ig -:):-,:; {li {rn |
  1
300/ {rn {rn {ih {if |
  1
):-+:' {rn {mo {ho |
  1
):-+:' {rn {mo {hn |
  1
61+<*-):r<*-): {rn 90-(>-; $ :'><+<*- 1*-=, m 0/:1 m 
  1
 oqkijmihjlnklolokhj m kqjmknhhjimgnkgkkk m 
  1
 kmqmj liqhjnjinonhigkjg lqj nqnnglhiinhigfnogl 
  1
 kmqmj liqogkfmkfmklliflf nqhkfffffffffffffi nqjgnimllgojhiggmj 
  1
 kmqmj liqhjnjinonhigkjg nqnnommlomkimjnjij:roni nqnnglhiinhigfnogl 
  1
 o 
  1
 1*33@,*-9><: 
  1
 1*33@,*-9><: 
  1
 1*33=, 
  1
 1*33=, 
  1
 V V 
  1
 o 
  1
 o 
  1
 o 
  1
 Y n Y o " V V |
  1
/:-,*=:1+r><>;L036;W6,+0-&r>++-6= {rn {rn {rn {mm n k nooooooooo n |
  1
9><: {hm {hl {hk {m {rn {hj 90-(>-; ,6183: |
  1
300/ {rn {rn {io {mm |
  1
/3>1:r,*-9><: {rn koqkfffffffffffffl miqnigihnjnlfhfilf o o o n rnqglifofjlohlljijf:roni rn o 90-(>-;@) V V V V |
  1
<0:;8: {rn {hi {kg {jl {hh 90-(>-; {ml {rn |
  1
<0:;8: {rn {mk {ik {hg {hf -:):-,:; {nk {rn |
  1
:;8: {rn {go {lh {lk {gn 90-(>-; |
  1
<0:;8: {rn {mi {mj {gm {gl 90-(>-; {no {rn |
  1
<0:;8: {rn {kk {gk {mj {kf -:):-,:; {ml {rn |
  1
:;8: {rn {ji {gj {mj {ii 90-(>-; |
  1
<0:;8: {rn {gi {gh {mi {jn -:):-,:; {gg {rn |
  1
:;8: {rn {gf {jj {mi {il 90-(>-; |
  1
<0:;8: {rn {fo {mh {gh {fn -:):-,:; {jk {rn |
  1
<0:;8: {rn {mh {fo {kk {hh -:):-,:; {jk {rn |
  1
300/ {rn {rn {fo {fm |
  1
):-+:' {rn {mg {fl |
  1
):-+:' {rn {mg {fk |
  1
61+<*-):r<*-): {rn 90-(>-; $ :'><+<*- 1*-=, m 0/:1 m 
  1
 oqkikgnhljjnfmooffj m kqjnfgoonlomikikkk m 
  1
 kmqmkffffffffffffl nkqkjjifnmmmfhmnih mqkfgoongojkoiiomm:roni nqnnglhiinhigfnoff 
  1
 kmqmkffffffffffffl njqnnlokfhfhmnfng nqhjooooooooooookf nqjgnimllgojhiggmj 
  1
 kmqmkffffffffffffl nkqkjjifnmmmfhmnih lqkffffffffffffffi nqnnglhiinhigfnnog 
  1
 o 
  1
 1*33@,*-9><: 
  1
 1*33@,*-9><: 
  1
 1*33=, 
  1
 1*33=, 
  1
 V V 
  1
 o 
  1
 o 
  1
 o 
  1
 Y n Y o " V V |
  1
<0:;8: {rn {fj {fi {mf {jf -:):-,:; {fh {rn |
  1
:;8: {rn {im {ij {jg {fg 90-(>-; |
  1
<0:;8: {rn {ff {lo {lj {ig 90-(>-; {km {rn |
  1
<0:;8: {rn {lo {ff {fj {noo 90-(>-; {km {rn |
  1
):-+:' {rn {jf {non |
  1
,+->687+r<*-): {rn kmqmkffffffffffffl jqfngihnjnlfhfilfn o nqglifofjlohlljijf:roni n o V V |
  1
<0:;8: {rn {kj {lm {fi {nom 90-(>-; {nk {rn |
  1
):-+:' {rn {jf {nol |
  1
,+->687+r<*-): {rn kmqmkffffffffffffl jqfngihnjnlfhfilfn lqj rnqglifofjlohlljijf:roni rn o V V |
  1
<0:;8: {rn {lj {lk {nok {noj -:):-,:; {li {rn |
  1
:;8: {rn {lg {noi {lj {noh 90-(>-; |
  1
9><: {nog {nof {nno {m {rn {nnn 90-(>-; ,6183: |
  1
/061+ {rn kmqmj liqhjnjinonhigkjg lqj |
  1
/061+ {rn kmqmj liqhjnjinonhigkjg nqnnommlomkimjnjij:roni |
  1
/:-,*=:1+r><>;L036;W6,+0-&r>++-6= {rn {rn {rn {kn n k n o |
  1
9><: {nnm {nnl {nnk {m {rn {hj 90-(>-; ,6183: |
  1
300/ {rn {rn {nok {kn |
  1
/3>1:r,*-9><: {rn lgqhkffffffffffffl jqfngihnjnlfhfilfn o rn nqglifofjlohlljijf:roni o o ro rn 90-(>-;@) V V V V |
  1
<0:;8: {rn {gk {kk {nnj {nni -:):-,:; {ml {rn |
  1
:;8: {rn {ji {nnh {jl {nng 90-(>-; |
  1
<0:;8: {rn {nnf {nok {kj {hf 90-(>-; {hk {rn |
  1
:;8: {rn {go {nmo {hg {nmn 90-(>-; |
  1
):-+:' {rn {noj {nmm |
  1
61+<*-):r<*-): {rn 90-(>-; $ :'><+<*- 1*-=, m 0/:1 m 
  1
 oqkijmihjlnklololgi m kqjmknhhjimgnkgklj m 
  1
 lgqhj liqhjnjinonhigkjg lqj nqnnglhiinhigfnofm 
  1
 koqj liqogkfmkfmklliflf lqj nqjgnimllgojhigggf 
  1
 kmqmj liqhjnjinonhigkjg lqj nqnnglhiinhigfnofh 
  1
 o 
  1
 1*33@,*-9><: 
  1
 1*33@,*-9><: 
  1
 1*33=, 
  1
 1*33=, 
  1
 V V 
  1
 o 
  1
 o 
  1
 o 
  1
 Y n Y o " V V |
  1
<0:;8: {rn {nml {nmk {kh {gl -:):-,:; {nmj {rn |
  1
:;8: {rn {gj {gf {gm {nmi 90-(>-; |
  1
<0:;8: {rn {kg {hi {nml {nmh 90-(>-; {ml {rn |
  1
):-+:' {rn {gl {nmg |
  1
<0:;8: {rn {nmf {jo {nmk {nlo 90-(>-; {gg {rn |
  1
<0:;8: {rn {jo {nmf {jm {fn 90-(>-; {gg {rn |
  1
300/ {rn {rn {gh {nnl |
  1
):-+:' {rn {gl {nln |
  1
<0:;8: {rn {jl {jm {nlm {nll -:):-,:; {jk {rn |
  1
:;8: {rn {nlk {jj {jm {nlj 90-(>-; |
  1
9><: {nli {nlh {nlg {m {rn {nlf 90-(>-; ,6183: |
  1
/061+ {rn kmqmkffffffffffffl nkqkjjifnmmmfhmnih mqkfgoongojkoiiomm:roni |
  1
/061+ {rn kmqmkffffffffffffl nkqkjjifnmmmfhmnih lqkffffffffffffffi |
  1
<0:;8: {rn {nko {jg {in {noo -:):-,:; {fh {rn |
  1
<0:;8: {rn {jg {nko {ik {nom -:):-,:; {fh {rn |
  1
300/ {rn {rn {nko {nkn |
  1
,+->687+r<*-): {rn kmqmj kiqkngihnjnlfhfjfi oqghj o o n V V |
  1
<0:;8: {rn {in {io {nkm {nkl -:):-,:; {km {rn |
  1
:;8: {rn {nkk {im {fj {nkj 90-(>-; |
  1
/061+ {rn kmqmj kiqkngihnjnlfhfilf o |
  1
:;8: {rn {ij {nmo {fi {nki 90-(>-; |
  1
/061+ {rn kmqmj kiqkngihnjnlfhfilf lqj |
  1
<0:;8: {rn {hg {nkm {ih {noj 90-(>-; {hk {rn |
  1
:;8: {rn {noi {go {ih {nkh 90-(>-; |
  1
):-+:' {rn {noj {nkg |
  1
61+<*-):r<*-): {rn 90-(>-; $ :'><+<*- 1*-=, m 0/:1 m 
  1
 oqkijmihjlnklolomjl m kqjmknhhjimgnkgklj m 
  1
 kmqmj liqhjnjinonhigkjg nqnnommlomkimjnjij:roni nqnnglhiinhigfnofm 
  1
 koqj liqogkfmkfmklliflf lqnohhfnhljlkjonok:roni nqjgnimllgojhiggfi 
  1
 lgqhj liqhjnjinonhigkjg nqnnommlomkimjnjij:roni nqnnglhiinhigfnofh 
  1
 o 
  1
 1*33@,*-9><: 
  1
 1*33@,*-9><: 
  1
 1*33=, 
  1
 1*33=, 
  1
 V V 
  1
 o 
  1
 o 
  1
 o 
  1
 Y n Y o " V V |
  1
/:-,*=:1+r><>;L036;W6,+0-&r>++-6= {rn {rn {rn {if n l ng o |
  1
9><: {nkf {njo {njn {m {rn {njm 90-(>-; ,6183: |
  1
300/ {rn {li {njl {if |
  1
<01:r,*-9><: {rn koqj liqimgofoiinjmjnoh nqhj rnqglifofjlohlljijf:roni rn o mqmkjigloihknfigki rkqnmjnniimfjjomohi:roni o n V V roqggolhkghflmkmffgn oqkhkmhgkhjooihkiol mqmkjigloihknfigki 90-(>-; V V V V |
  1
/:-,*=:1+r><>;L036;W6,+0-&r>++-6= {rn {rn {rn {hl n k n o |
  1
9><: {njk {fm {gg {m {rn {kl -:):-,:; ,6183: |
  1
300/ {rn {rn {nlm {hl |
  1
<0:;8: {rn {nlm {njj {hi {nni 90-(>-; {nnk {rn |
  1
:;8: {rn {nji {nnh {nnj {nmn 90-(>-; |
  1
):-+:' {rn {nll {njh |
  1
61+<*-):r<*-): {rn 90-(>-; $ :'><+<*- 1*-=, m 0/:1 m 
  1
 oqkikgnhljjnfmonoji m kqjnfgoonlomikiji m 
  1
 kmqmkffffffffffffl nkqkjjifnmmmfhmnih lqkffffffffffffffi nqnnglhiinhigfnofh 
  1
 koqj njqnnlokfhfhmnfnf lqkfffffffffffffhg nqjgnimllgojhigglg 
  1
 lgqhkffffffffffffl nkqkjjifnmmmfhmnil lqkffffffffffffffi nqnnglhiinhigfnogl 
  1
 o 
  1
 1*33@,*-9><: 
  1
 1*33@,*-9><: 
  1
 1*33=, 
  1
 1*33=, 
  1
 V V 
  1
 o 
  1
 o 
  1
 o 
  1
 Y n Y o " V V |
  1
<0:;8: {rn {nkm {hg {nko {njg 90-(>-; {hk {rn |
  1
):-+:' {rn {njg {njf |
  1
,+->687+r<*-): {rn lgqhj kiqkngihnjnlfhfilf lqj nqglifofjlohlljijf:roni n ro V V |
  1
/061+ {rn lgqhj liqhjnjinonhigkjg lqj |
  1
<0:;8: {rn {nio {gm {gk {nmh -:):-,:; {nmj {rn |
  1
<0:;8: {rn {gm {nio {gi {nlo -:):-,:; {nmj {rn |
  1
300/ {rn {rn {nio {nlh |
  1
61+<*-):r<*-): {rn 90-(>-; $ :'><+<*- 1*-=, m 0/:1 m 
  1
 oqkikgnfmhgiogiifim m kqjnfgnggllmmnkohl m 
  1
 kmqmkffffffffffffl noqooojklgkfmhkgh lqj nqnnglhiinhigfnon 
  1
 kmqmkffffffffffffl fqlklnkjlhihiojnoi nqhkffffffffffffm nqjgnimllgojhigkij 
  1
 kmqmkffffffffffffl noqooojklgkfmhkgh o nqnnglhiinhigfnomg 
  1
 o 
  1
 1*33@,*-9><: 
  1
 1*33@,*-9><: 
  1
 1*33=, 
  1
 1*33=, 
  1
 V V 
  1
 o 
  1
 o 
  1
 o 
  1
 Y n Y o " V V |
  1
:;8: {rn {nji {gj {nml {nin 90-(>-; |
  1
/061+ {rn kmqmkffffffffffffl noqooojklgkfmhkgh lqj |
  1
<0:;8: {rn {gh {gi {nim {nil -:):-,:; {gg {rn |
  1
:;8: {rn {gf {nik {nmk {nij 90-(>-; |
  1
/061+ {rn kmqmkffffffffffffl noqooojklgkfmhkgh o |
  1
<0:;8: {rn {nim {nnj {fo {nll 90-(>-; {nnk {rn |
  1
:;8: {rn {nnh {nlk {fo {nii 90-(>-; |
  1
):-+:' {rn {nll {nih |
  1
61+<*-):r<*-): {rn 90-(>-; $ :'><+<*- 1*-=, m 0/:1 m 
  1
 oqkikgnhljjnfmoofnm m kqjnfgoonlomikikkk m 
  1
 lgqhkffffffffffffl nkqkjjifnmmmfhmnil mqkfgoongojkoiiomm:roni nqnnglhiinhigfnofh 
  1
 koqj njqnnlokfhfhmnfnhi lqkfihginiohiijmoj:roni nqjgnimllgojhiggmh 
  1
 kmqmkffffffffffffl nkqkjjifnmmmfhmnih mqkfgoongojkoiiomm:roni nqnnglhiinhigfnnn 
  1
 o 
  1
 1*33@,*-9><: 
  1
 1*33@,*-9><: 
  1
 1*33=, 
  1
 1*33=, 
  1
 V V 
  1
 o 
  1
 o 
  1
 o 
  1
 Y n Y o " V V |
  1
/:-,*=:1+r><>;L036;W6,+0-&r>++-6= {rn {rn {rn {fm n l lm o |
  1
9><: {nig {nkn {nif {m {rn {nho 90-(>-; ,6183: |
  1
300/ {rn {jk {nhn {fm |
  1
<01:r,*-9><: {rn koqkfffffffffffffl nkqjiljgiklhnlklhf nqhj rnqglifofjlohlljijf:roni rn o mqmhnhihiijlginjkh rkqnhlolnihinionh:roni o n V V oqgglnmkjnflhkloig oqkifnlgiinolhllogh mqmhnhihiijlginjkh 90-(>-; V V V V |
  1
<0:;8: {rn {fi {fj {nnf {njg -:):-,:; {fh {rn |
  1
9><: {nhm {if {fh {m {rn {nhl 90-(>-; ,6183: |
  1
<0:;8: {rn {nok {nnf {ff {nkl 90-(>-; {hk {rn |
  1
:;8: {rn {nkk {noi {nkm {nhk 90-(>-; |
  1
):-+:' {rn {njg {nhj |
  1
,+->687+r<*-): {rn knqmklhkffffmknlhl kiqkngihnjnlfhfiok o n rnqglifofjlohlljijf:roni o V V |
  1
,+->687+r<*-): {rn knqmklhkffffmknlhl kiqkngihnjnlfhfiok lqj rn nqglifofjlohlljijf:roni o V V |
  1
61+<*-):r<*-): {rn 90-(>-; $ :'><+<*- 1*-=, m 0/:1 m 
  1
 oqkijmihjlnklolokif m kqjmknhhjimgnkgkhn m 
  1
 lgqhj liqhjnjinonhigkjg nqnnommlomkimjnjij:roni nqnnglhiinhigfnogl 
  1
 lgqhj liqogkfmkfmklliflf nqhkffffffffffffih nqjgnimllgojhiggmj 
  1
 lgqhj liqhjnjinonhigkjg lqj nqnnglhiinhigfnohh 
  1
 o 
  1
 1*33@,*-9><: 
  1
 1*33@,*-9><: 
  1
 1*33=, 
  1
 1*33=, 
  1
 V V 
  1
 o 
  1
 o 
  1
 o 
  1
 Y n Y o " V V |
  1
/061+ {rn lgqhj liqhjnjinonhigkjg nqnnommlomkimjnjij:roni |
  1
/:-,*=:1+r><>;L036;W6,+0-&r>++-6= {rn {rn {rn {nof n l lh o |
  1
9><: {nhi {nhh {nhg {m {rn {nhf 90-(>-; ,6183: |
  1
300/ {rn {ngo {ngn {nof |
  1
+0-*,r,*-9><: {rn koqkfffffffffffffl nhqjignlgjojinfook nqhj rnqglifofjlohlljijf:roni rn o mqjjhimjikihkfhmol rnqklmimjfgnlmfkofj o o rn 90-(>-;@) V V V V |
  1
<0:;8: {rn {njl {njl {ngm {ngl -:):-,:; {nno {rn |
  1
/:-,*=:1+r><>;L036;W6,+0-&r>++-6= {rn {rn {rn {nnl n k nooooooooo n |
  1
<0:;8: {rn {nnj {nim {nio {ngk 90-(>-; {nnk {rn |
  1
):-+:' {rn {ngk {ngj |
  1
/061+ {rn lgqhkffffffffffffl nkqkjjifnmmmfhmnil lqkffffffffffffffi |
  1
:;8: {rn {nmo {nkk {nko {ngi 90-(>-; |
  1
/061+ {rn lgqhj kiqkngihnjnlfhfilf lqj |
  1
<0:;8: {rn {nmk {nml {njj {ngk -:):-,:; {nmj {rn |
  1
61+<*-):r<*-): {rn 90-(>-; $ :'><+<*- 1*-=, m 0/:1 m 
  1
 oqkikgnfmhgiogiifk m kqjnfgnggllmmnknhn m 
  1
 lgqhkffffffffffffl noqooojklgkfmhkgh lqj nqnnglhiinhigfnon 
  1
 koqkfffffffffffffl fqlklnkjlhihiojolj lqkffffffffffffffi nqjgnimllgojhigkhi 
  1
 kmqmkffffffffffffl noqooojklgkfmhkgh lqj nqnnglhiinhigfnoog 
  1
 o 
  1
 1*33@,*-9><: 
  1
 1*33@,*-9><: 
  1
 1*33=, 
  1
 1*33=, 
  1
 V V 
  1
 o 
  1
 o 
  1
 o 
  1
 Y n Y o " V V |
  1
<0:;8: {rn {njj {nlm {nmf {nil 90-(>-; {nnk {rn |
  1
:;8: {rn {nlk {nik {nim {nhk 90-(>-; |
  1
):-+:' {rn {ngk {ngh |
  1
61+<*-):r<*-): {rn 90-(>-; $ :'><+<*- 1*-=, m 0/:1 m 
  1
 oqkikgnfmhgiogiiggk m kqjnfgnggllmmnknmi m 
  1
 kmqmkffffffffffffl noqooojklgkfmhkgh o nqnnglhiinhigfnoog 
  1
 koqkfffffffffffffl fqlklnkjlhihiokfik lqffjnlhkmnklfhmgn:ronh nqjgnimllgojhigkhn 
  1
 lgqhkffffffffffffl noqooojklgkfmhkgh o nqnnglhiinhigfnonj 
  1
 o 
  1
 1*33@,*-9><: 
  1
 1*33@,*-9><: 
  1
 1*33=, 
  1
 1*33=, 
  1
 V V 
  1
 o 
  1
 o 
  1
 o 
  1
 Y n Y o " V V |
  1
61+<*-):r<*-): {rn 90-(>-; $ :'><+<*- 1*-=, m 0/:1 m 
  1
 oqkikgnhljjnfmoofhl m kqjnfgoonlomikijkm m 
  1
 lgqhkffffffffffffl nkqkjjifnmmmfhmnil lqkffffffffffffffi nqnnglhiinhigfnoff 
  1
 lgqhkffffffffffffl njqnnlokfhfhmnfng nqhjoooooooooooom nqjgnimllgojhigglg 
  1
 lgqhkffffffffffffl nkqkjjifnmmmfhmnil mqkfgoongojkoiiomm:roni nqnnglhiinhigfnogg 
  1
 o 
  1
 1*33@,*-9><: 
  1
 1*33@,*-9><: 
  1
 1*33=, 
  1
 1*33=, 
  1
 V V 
  1
 o 
  1
 o 
  1
 o 
  1
 Y n Y o " V V |
  1
/061+ {rn lgqhkffffffffffffl nkqkjjifnmmmfhmnil mqkfgoongojkoiiomm:roni |
  1
/:-,*=:1+r><>;L036;W6,+0-&r>++-6= {rn {rn {rn {nlh n l lo o |
  1
300/ {rn {nmj {ngg {nlh |
  1
<01:r,*-9><: {rn koqkfffffffffffffl fqgfmikmiikjjomhl nqhj rnqglifofjlohlljijf:roni rn o mqmhnhighjljfkohk rkqnhlollihjoffiigj:roni o n V V roqgglnnmhmmnloolnlk oqkifniogihfkimjg mqmhnhighjljfkohk 90-(>-; V V V V |
  1
<0:;8: {rn {nhn {nhn {ngf {nfo 90-(>-; {nlg {rn |
  1
/:-,*=:1+r><>;L036;W6,+0-&r>++-6= {rn {rn {rn {nkn m k m o l mo o |
  1
/3>1:r,*-9><: {rn knqfghkffffgkgmhkh kiqkngihnjnlfhfjfi nqhj nqglifofjlohlljijf:roni n ro o o n 90-(>-;@) V V V V |
  1
,+->687+r<*-): {rn lgqhj kiqkngihnjnlfhfilf o rnqglifofjlohlljijf:roni rn o V V |
  1
/061+ {rn lgqhj kiqkngihnjnlfhfilf o |
  1
/:-,*=:1+r><>;L036;W6,+0-&r>++-6= {rn {rn {rn {njo n l li o |
  1
9><: {nfn {nfm {nfl {m {rn {nfk 90-(>-; ,6183: |
  1
300/ {rn {nfj {nfi {njo |
  1
+0-*,r,*-9><: {rn koqkfffffffffffffl niqkmnjknomfmhjhfk nqhj rnqglifofjlohlljijf:roni rn o oqgnlhmjjmgmilfjknh oqhjhhonfohgkjfklhn o o rn 90-(>-;@) V V V V |
  1
300/ {rn {rn {nfh {nof |
  1
<0:;8: {rn {ngn {ngn {nfg {nff -:):-,:; {njn {rn |
  1
<0:;8: {rn {ngm {ngm {njl {ngl 90-(>-; {moo {rn |
  1
:;8: {rn {mon {mon {ngm {mom 90-(>-; |
  1
:;8: {rn {nik {nji {nio {mol 90-(>-; |
  1
/061+ {rn lgqhkffffffffffffl noqooojklgkfmhkgh lqj |
  1
,+->687+r<*-): {rn lgqhj kiqkngihnjnlfhfjfi oqghj o ro rn V V |
  1
/061+ {rn lgqhkffffffffffffl noqooojklgkfmhkgh o |
  1
<0:;8: {rn {ngg {ngg {mok {moj -:):-,:; {nif {rn |
  1
<0:;8: {rn {ngf {ngf {nhn {nfo -:):-,:; {moi {rn |
  1
:;8: {rn {moh {moh {nhn {mog 90-(>-; |
  1
/:-,*=:1+r><>;L036;W6,+0-&r>++-6= {rn {rn {rn {nhh n l lj o |
  1
9><: {mof {mno {mnn {m {rn {mnm 90-(>-; ,6183: |
  1
300/ {rn {mnl {mnk {nhh |
  1
+0-*,r,*-9><: {rn koqkfffffffffffffl njqjgmlimkohlohhh nqhj rnqglifofjlohlljijf:roni rn o nqnilnhlmogikfjmlf oqlfmmgkfjfgmfijfgl o o rn 90-(>-;@) V V V V |
  1
300/ {rn {rn {nfg {njo |
  1
<0:;8: {rn {nfi {nfi {mnj {mni -:):-,:; {nhg {rn |
  1
<0:;8: {rn {nfh {nfh {mnh {mng 90-(>-; {ngo {rn |
  1
<0:;8: {rn {nfg {nfg {ngn {nff 90-(>-; {nfj {rn |
  1
:;8: {rn {mnf {mnf {nfg {mmo 90-(>-; |
  1
300/ {rn {rn {ngm {mmn |
  1
):-+:' {rn {ngl {mmm |
  1
:336/,:r<*-): {rn koqj liqmljnfoimimjomgh nqhj rnqglifofjlohlljijf:roni rn o nqjniliinlhghlghjj rmqhgjkmhknohkmnhol:roni o n V V |
  1
61+<*-):r<*-): {rn 90-(>-; $ :'><+<*- 1*-=, m 0/:1 m 
  1
 oqkikgnfmhgiogiifml m kqjnfgnggllmmnkmmk m 
  1
 lgqhkffffffffffffl noqooojklgkfmhkgh o nqnnglhiinhigfnon 
  1
 lgqhkffffffffffffl fqlklnkjlhihiokfik nqhkffffffffffffmf nqjgnimllgojhigkgl 
  1
 lgqhkffffffffffffl noqooojklgkfmhkgh lqj nqnnglhiinhigfoffm 
  1
 o 
  1
 1*33@,*-9><: 
  1
 1*33@,*-9><: 
  1
 1*33=, 
  1
 1*33=, 
  1
 V V 
  1
 o 
  1
 o 
  1
 o 
  1
 Y n Y o " V V |
  1
<0:;8: {rn {mok {mok {ngg {moj 90-(>-; {mml {rn |
  1
:;8: {rn {mmk {mmk {mok {mmj 90-(>-; |
  1
300/ {rn {mmi {ngf {mno |
  1
):-+:' {rn {nfo {mmh |
  1
:336/,:r<*-): {rn koqkfffffffffffffl nkqflhninifffimjgh nqhj rnqglifofjlohlljijf:roni rn o nqjigjljlllgoignjg rmqggnmjhjolfimofjm:roni o n V V |
  1
/:-,*=:1+r><>;L036;W6,+0-&r>++-6= {rn {rn {rn {nfm n l lk o |
  1
9><: {mmg {mmf {moi {m {rn {mlo 90-(>-; ,6183: |
  1
300/ {rn {mln {mlm {nfm |
  1
<01:r,*-9><: {rn koqkfffffffffffffl njqmkhmnikmmjjlojf nqhj rnqglifofjlohlljijf:roni rn o nqjojigkifmoikmolh rmqhijgoijinnlmlhok:roni o n V V oqhmlomhlmkggnognnm oqifognfklngggfoli nqjojigkifmoikmolh 90-(>-; V V V V |
  1
300/ {rn {rn {mnj {nhh |
  1
<0:;8: {rn {mnk {mnk {mll {mlk -:):-,:; {nfl {rn |
  1
<0:;8: {rn {mnj {mnj {nfi {mni 90-(>-; {mnl {rn |
  1
:;8: {rn {mlj {mlj {mnj {mli 90-(>-; |
  1
<0:;8: {rn {mnh {mnh {nfh {mng -:):-,:; {mlh {rn |
  1
:;8: {rn {mlg {mlg {nfh {mlf 90-(>-; |
  1
):-+:' {rn {nff {mko |
  1
:336/,:r<*-): {rn koqkfffffffffffffl niqjlhjkooghiimfhj nqhj rnqglifofjlohlljijf:roni rn o nqjimkfjkjminoffll rmqghonimhggimgffom:roni o n V V |
  1
9><: {mkn {mkm {mkl {m {rn {mkk 90-(>-; ,6183: |
  1
/061+ {rn kmqoniliinlhghlghk liqmljnfoimimjomgh nqhj |
  1
300/ {rn {rn {mok {mmf |
  1
):-+:' {rn {moj {mkj |
  1
:336/,:r<*-): {rn koqkfffffffffffffl fqjnfokjlojhjknnfn nqhj rnqglifofjlohlljijf:roni rn o nqjigjlhjnommmiinj rmqggnminjongknnokg:roni o n V V |
  1
300/ {rn {rn {mki {mno |
  1
/061+ {rn kmqoigjljlllgoigoh nkqflhninifffimjgh nqhkffffffffffffik |
  1
/:-,*=:1+r><>;L036;W6,+0-&r>++-6= {rn {rn {rn {mno n l ll o |
  1
9><: {mkh {mkg {mkf {m {rn {mjo 90-(>-; ,6183: |
  1
<01:r,*-9><: {rn koqkfffffffffffffl njqoimniliofnjilfl nqhj rnqglifofjlohlljijf:roni rn o nqjigjljlllgoignjg rmqggnmjhjolfimofjm:roni o n V V o n nqjigjljlllgoignjg 90-(>-; V V V V |
  1
300/ {rn {rn {mll {nfm |
  1
<0:;8: {rn {mlm {mlm {mki {mjn -:):-,:; {mnn {rn |
  1
<0:;8: {rn {mll {mll {mnk {mlk 90-(>-; {mln {rn |
  1
:;8: {rn {mjm {mjm {mll {mjl 90-(>-; |
  1
):-+:' {rn {mni {mjk |
  1
:336/,:r<*-): {rn koqkfffffffffffffl njqfnmjlfmhklifonl nqhj rnqglifofjlohlljijf:roni rn o nqlhjooolmmjofllgl rmqjmjhjnnfhnhfnloj:roni o n V V |
  1
300/ {rn {mjj {mnh {mji |
  1
):-+:' {rn {mng {mjh |
  1
:336/,:r<*-): {rn koqkfffffffffffffl nhqjighfmkinmiiflk nqhj rnqglifofjlohlljijf:roni rn o nqnmkfffgnkihiffgi rmqoiijmmggnijlihkm:roni o n V V |
  1
/061+ {rn kmqoimkfjkjminofgf niqjlhjkooghiimfhj nqhkffffffffffffik |
  1
/:-,*=:1+r><>;L036;W6,+0-&r>++-6= {rn {rn {rn {mmn n l nh o |
  1
9><: {mjg {mjf {mio {m {rn {min 90-(>-; ,6183: |
  1
300/ {rn {moo {mim {mmn |
  1
<01:r,*-9><: {rn koqj liqnnkflnfllnhkolk nqhj rnqglifofjlohlljijf:roni rn o nqjniliinlhghlghgm rmqhgjkmhknohkmnhjm:roni o n V V o n nqjniliinlhghlghgm 90-(>-; V V V V |
  1
/061+ {rn kmqoigjlhjnommmijk fqjnfokjlojhjknnfn nqhjooooooooooooli |
  1
<0:;8: {rn {mki {mki {mlm {mjn 90-(>-; {mmi {rn |
  1
/:-,*=:1+r><>;L036;W6,+0-&r>++-6= {rn {rn {rn {mmf n l mf o |
  1
9><: {mil {mik {mij {m {rn {mii 90-(>-; ,6183: |
  1
300/ {rn {mml {mih {mmf |
  1
<01:r,*-9><: {rn koqkfffffffffffffl fqlfkokjlojggningf nqhj rnqglifofjlohlljijf:roni rn o nqjigjlhjnommmiinj rmqggnminjongknnokg:roni o n V V o n nqjigjlhjnommmiinj 90-(>-; V V V V |
  1
:;8: {rn {mig {mig {mki {mif 90-(>-; |
  1
):-+:' {rn {mlk {mho |
  1
:336/,:r<*-): {rn koqkfffffffffffffl njqlohmihlmihjjfm nqhj rnqglifofjlohlljijf:roni rn o nqkkmglkojolmnjfnh rmqijoljjinglomikjn:roni o n V V |
  1
/061+ {rn knqghjooolmmjofllh njqfnmjlfmhklifonl nqhkffffffffffffik |
  1
300/ {rn {rn {mhn {mji |
  1
9><: {mhm {rn {mlh {m {rn {mhl 90-(>-; ,6183: |
  1
/061+ {rn knqimkfffgnkihiffh nhqjighfmkinmiiflk nqhj |
  1
/:-,*=:1+r><>;L036;W6,+0-&r>++-6= {rn {rn {rn {mkm n l ni o |
  1
9><: {mhk {mhj {mhi {m {rn {mhh 90-(>-; ,6183: |
  1
300/ {rn {mhg {mhf {mkm |
  1
+0-*,r,*-9><: {rn koqj liqijlgjikilhjfmmi nqhj rnqglifofjlohlljijf:roni rn o nqmmmkfmjohlhmkgmi oqhmnhmloffffnnohfj o o rn 90-(>-;@) V V V V |
  1
<0:;8: {rn {mim {mim {mgo {mgn -:):-,:; {mkl {rn |
  1
/:-,*=:1+r><>;L036;W6,+0-&r>++-6= {rn {rn {rn {mkg n l mg o |
  1
9><: {mgm {mgl {mgk {m {rn {mgj 90-(>-; ,6183: |
  1
300/ {rn {mgi {mgh {mkg |
  1
<01:r,*-9><: {rn koqkfffffffffffffl fqmogffmnokfnmgmli nqhj rnqglifofjlohlljijf:roni rn o nqjojigmlolgofigni rmqhijgomnhknmkghig:roni o n V V roqhmlolfngilkolhnml oqifogohonhmomjmgmk nqjojigmlolgofigni 90-(>-; V V V V |
  1
<0:;8: {rn {mih {mih {mgg {mgf -:):-,:; {mkf {rn |
  1
):-+:' {rn {mjn {mfo |
  1
:336/,:r<*-): {rn koqkfffffffffffffl njqnghnijjngljonff nqhj rnqglifofjlohlljijf:roni rn o nqjigjljlllgoignjg rmqggnmjhjolfimofjm:roni o n V V |
  1
/061+ {rn knqfkmglkojolmnjgi njqlohmihlmihjjfm nqhkffffffffffffik |
  1
<0:;8: {rn {mhn {mhn {mfn {mfm 90-(>-; {mjj {rn |
  1
/:-,*=:1+r><>;L036;W6,+0-&r>++-6= {rn {rn {rn {mji n l n o |
  1
+0-*,r,*-9><: {rn koqkfffffffffffffl ngqooimfoookhlnghh nqhj rnqglifofjlohlljijf:roni rn o nqoohoijlnloijjokn oqkjlnnklgikjomhhfn o o rn 90-(>-;@) V V V V |
  1
/:-,*=:1+r><>;L036;W6,+0-&r>++-6= {rn {rn {rn {mjf n l nj o |
  1
9><: {mfl {mfk {mfj {m {rn {mfi 90-(>-; ,6183: |
  1
300/ {rn {mfh {mfg {mjf |
  1
+0-*,r,*-9><: {rn koqj ljqfmifgmhojlgfif nqhj rnqglifofjlohlljijf:roni rn o nqkhgiifgmoholiflj roqokfoljgigghgfkjkgm o o rn 90-(>-;@) V V V V |
  1
300/ {rn {rn {mgo {mkm |
  1
<0:;8: {rn {mhf {mhf {mff {loo -:):-,:; {mio {rn |
  1
<0:;8: {rn {mgo {mgo {mim {mgn 90-(>-; {mhg {rn |
  1
:;8: {rn {lon {lon {mgo {lom 90-(>-; |
  1
/:-,*=:1+r><>;L036;W6,+0-&r>++-6= {rn {rn {rn {mik n l mh o |
  1
9><: {lol {lok {loj {m {rn {loi 90-(>-; ,6183: |
  1
300/ {rn {loh {log {mik |
  1
+0-*,r,*-9><: {rn koqkfffffffffffffl gqghlgkmjolngingfk nqhj rnqglifofjlohlljijf:roni rn o nqnilnhfhohkkmhook oqlfmmhimfjfmfofhlj o o rn 90-(>-;@) V V V V |
  1
300/ {rn {rn {mgg {mkg |
  1
<0:;8: {rn {mgh {mgh {lof {lno -:):-,:; {mij {rn |
  1
<0:;8: {rn {mgg {mgg {mih {mgf 90-(>-; {mgi {rn |
  1
:;8: {rn {lnn {lnn {mgg {lnm 90-(>-; |
  1
/061+ {rn kmqoigjljlllgoigoh njqnghnijjngljonff nqhkffffffffffffik |
  1
<0:;8: {rn {mfn {mfn {mhn {mfm -:):-,:; {lnl {rn |
  1
:;8: {rn {lnk {lnk {mhn {lnj 90-(>-; |
  1
/:-,*=:1+r><>;L036;W6,+0-&r>++-6= {rn {rn {rn {mhj n l nk o |
  1
9><: {lni {lnh {lng {m {rn {lnf 90-(>-; ,6183: |
  1
300/ {rn {lmo {lmn {mhj |
  1
+0-*,r,*-9><: {rn koqj ljqjlhkjhiljjkhhnh nqhj rnqglifofjlohlljijf:roni rn o nqngglhjlnnhhnlofg oqklihijnnhmnfmljlf o o rn 90-(>-;@) V V V V |
  1
300/ {rn {rn {mff {mjf |
  1
<0:;8: {rn {mfg {mfg {lmm {lml -:):-,:; {mhi {rn |
  1
<0:;8: {rn {mff {mff {mhf {loo 90-(>-; {mfh {rn |
  1
:;8: {rn {lmk {lmk {mff {lmj 90-(>-; |
  1
):-+:' {rn {mgn {lmi |
  1
:336/,:r<*-): {rn koqj ljqffkihlmkoofhhgm nqhj rnqglifofjlohlljijf:roni rn o nqjniliinlhghlggof rmqhgjkmhknohkmngon:roni o n V V |
  1
/:-,*=:1+r><>;L036;W6,+0-&r>++-6= {rn {rn {rn {mgl n l mi o |
  1
9><: {lmh {lmg {lmf {m {rn {llo 90-(>-; ,6183: |
  1
300/ {rn {lln {llm {mgl |
  1
+0-*,r,*-9><: {rn koqkfffffffffffffl hqfhhhmhgjlkihiimi nqhj rnqglifofjlohlljijf:roni rn o oqimlflhiiifjhigfhn oqfkokngkigghfkhjgf o o rn 90-(>-;@) V V V V |
  1
300/ {rn {rn {lof {mik |
  1
<0:;8: {rn {log {log {lll {llk -:):-,:; {mgk {rn |
  1
<0:;8: {rn {lof {lof {mgh {lno 90-(>-; {loh {rn |
  1
:;8: {rn {llj {llj {lof {lli 90-(>-; |
  1
):-+:' {rn {mgf {llh |
  1
:336/,:r<*-): {rn koqkfffffffffffffl fqmifokjloioofnngh nqhj rnqglifofjlohlljijf:roni rn o nqjigjlhjnommmiinj rmqggnminjongknnokg:roni o n V V |
  1
300/ {rn {llg {mfn {llf |
  1
):-+:' {rn {mfm {lko |
  1
:336/,:r<*-): {rn koqkfffffffffffffl ngqkklhghkfgjkflof nqhj rnqglifofjlohlljijf:roni rn o nqnmkfffffggjmjonf rmqoiijmlmnffihknnj:roni o n V V |
  1
/:-,*=:1+r><>;L036;W6,+0-&r>++-6= {rn {rn {rn {mfk n l nl o |
  1
9><: {lkn {lkm {lkl {m {rn {lkk 90-(>-; ,6183: |
  1
300/ {rn {lkj {lki {mfk |
  1
<01:r,*-9><: {rn koqj ljqnliflimjfhklmg nqhj rnqglifofjlohlljijf:roni rn o nqljflhfglmkngijfj rmqkfhojhhhoojiglll:roni o n V V roqfojlfnonnoghmmigi oqkmkjhghjmkimlohof nqljflhfglmkngijfj 90-(>-; V V V V |
  1
300/ {rn {rn {lmm {mhj |
  1
<0:;8: {rn {lmn {lmn {lkh {lkg -:):-,:; {mfj {rn |
  1
<0:;8: {rn {lmm {lmm {mfg {lml 90-(>-; {lmo {rn |
  1
:;8: {rn {lkf {lkf {lmm {ljo 90-(>-; |
  1
):-+:' {rn {loo {ljn |
  1
:336/,:r<*-): {rn koqj ljqfhmlhjklfnjkofm nqhj rnqglifofjlohlljijf:roni rn o nqkionmmnkgnmkkjoi rmqigmnnmmgffmkfhoh:roni o n V V |
  1
/061+ {rn kmqoniliinlhghlggn ljqffkihlmkoofhhgm nqhj |
  1
/:-,*=:1+r><>;L036;W6,+0-&r>++-6= {rn {rn {rn {lok n l mj o |
  1
9><: {ljm {ljl {ljk {m {rn {ljj 90-(>-; ,6183: |
  1
300/ {rn {lji {ljh {lok |
  1
+0-*,r,*-9><: {rn koqkfffffffffffffl iqgggnoofiihmglofj nqhj rnqglifofjlohlljijf:roni rn o mqjjhjjolnofjjnikh rnqklmjjokhlmnklhnm o o rn 90-(>-;@) V V V V |
  1
300/ {rn {rn {lll {mgl |
  1
<0:;8: {rn {llm {llm {ljg {ljf -:):-,:; {loj {rn |
  1
<0:;8: {rn {lll {lll {log {llk 90-(>-; {lln {rn |
  1
:;8: {rn {lio {lio {lll {lin 90-(>-; |
  1
):-+:' {rn {lno {lim |
  1
:336/,:r<*-): {rn koqkfffffffffffffl fqnkgflgfolgnijmgj nqhj rnqglifofjlohlljijf:roni rn o nqkkmgmhofhlfihonh rmqijolkmgkikogikgm:roni o n V V |
  1
/061+ {rn kmqoigjlhjnommmijk fqmifokjloioofnngh nqhj |
  1
300/ {rn {rn {lil {llf |
  1
9><: {lik {mji {lnl {m {rn {lij 90-(>-; ,6183: |
  1
/061+ {rn knqimkfffffggjmkfj ngqkklhghkfgjkflof nqhj |
  1
/:-,*=:1+r><>;L036;W6,+0-&r>++-6= {rn {rn {rn {lnh n l nm o |
  1
9><: {lii {lih {lig {m {rn {lif 90-(>-; ,6183: |
  1
300/ {rn {lho {lhn {lnh |
  1
<01:r,*-9><: {rn koqj lkqffnklfilhnoknkl nqhj rnqglifofjlohlljijf:roni rn o nqlookjmhnlnnhkghm rmqlgggnlfgmfflglin:roni o n V V roqofhnohfmfhjojjnil oqffjmhlgjihhkggggf nqlookjmhnlnnhkghm 90-(>-; V V V V |
  1
300/ {rn {rn {lkh {mfk |
  1
<0:;8: {rn {lki {lki {lhm {lhl -:):-,:; {lng {rn |
  1
<0:;8: {rn {lkh {lkh {lmn {lkg 90-(>-; {lkj {rn |
  1
:;8: {rn {lhk {lhk {lkh {lhj 90-(>-; |
  1
):-+:' {rn {lml {lhi |
  1
:336/,:r<*-): {rn koqj ljqgghfnjnfjfggjkn nqhj rnqglifofjlohlljijf:roni rn o nqkkfolkiomholhlfj rmqiinhkjkhmoifmmjn:roni o n V V |
  1
/061+ {rn knqfionmmnkgnmkkkg ljqfhmlhjklfnjkofm nqhj |
  1
/:-,*=:1+r><>;L036;W6,+0-&r>++-6= {rn {rn {rn {lmg n l mk o |
  1
9><: {lhh {lhg {lhf {m {rn {lgo 90-(>-; ,6183: |
  1
300/ {rn {lgn {lgm {lmg |
  1
+0-*,r,*-9><: {rn koqkfffffffffffffl iqkkffmnjjkhkhhhki nqhj rnqglifofjlohlljijf:roni rn o oqfhkffffffoojkflgl oqkimkfffffjmgmjlni o o rn 90-(>-;@) V V V V |
  1
300/ {rn {rn {ljg {lok |
  1
<0:;8: {rn {ljh {ljh {lgl {lgk -:):-,:; {lmf {rn |
  1
<0:;8: {rn {ljg {ljg {llm {ljf 90-(>-; {lji {rn |
  1
:;8: {rn {lgj {lgj {ljg {lgi 90-(>-; |
  1
):-+:' {rn {llk {lgh |
  1
:336/,:r<*-): {rn koqkfffffffffffffl gqjklihnjjminmnggh nqhj rnqglifofjlohlljijf:roni rn o nqlhkfffffgjfhkffh rmqjmjhjoiomngmlgih:roni o n V V |
  1
/061+ {rn knqfkmgmhofhlfiifj fqnkgflgfolgnijmgj nqhjooooooooooooli |
  1
<0:;8: {rn {lil {lil {lgg {lgf 90-(>-; {llg {rn |
  1
/:-,*=:1+r><>;L036;W6,+0-&r>++-6= {rn {rn {rn {llf n l m o |
  1
+0-*,r,*-9><: {rn koqkfffffffffffffl nlqinmmfflhjmnglji nqhj rnqglifofjlohlljijf:roni rn o nihqjmmioikffgflgh rniiqkihhlkhfnfkkgg o o rn 90-(>-;@) V V V V |
  1
/:-,*=:1+r><>;L036;W6,+0-&r>++-6= {rn {rn {rn {lkm n l nn o |
  1
9><: {lfo {lfn {lfm {m {rn {lfl 90-(>-; ,6183: |
  1
300/ {rn {lfk {lfj {lkm |
  1
+0-*,r,*-9><: {rn koqj lkqijkhfggnomimmoh nqhj rnqglifofjlohlljijf:roni rn o nqljnoojijiglfkkok roqmmmnlofjmmikghokj o o rn 90-(>-;@) V V V V |
  1
300/ {rn {rn {lhm {lnh |
  1
<0:;8: {rn {lhn {lhn {lfi {lfh -:):-,:; {lkl {rn |
  1
<0:;8: {rn {lhm {lhm {lki {lhl 90-(>-; {lho {rn |
  1
:;8: {rn {lfg {lfg {lhm {lff 90-(>-; |
  1
):-+:' {rn {lkg {koo |
  1
:336/,:r<*-): {rn koqj ljqnjgfngjojnmkngk nqhj rnqglifofjlohlljijf:roni rn o nqkoimjjhhoikmojnl rmqjglnikimhhknkjfj:roni o n V V |
  1
/061+ {rn knqfkfolkiomholhk ljqgghfnjnfjfggjkg nqhj |
  1
/:-,*=:1+r><>;L036;W6,+0-&r>++-6= {rn {rn {rn {ljl n l ml o |
  1
9><: {kon {mmn {kom {m {rn {kol 90-(>-; ,6183: |
  1
300/ {rn {kok {koj {ljl |
  1
<01:r,*-9><: {rn koqkfffffffffffffl jqfijjkijlkjgihffj nqhj rnqglifofjlohlljijf:roni rn o nqnmkfffffggjmjoon rmqoiijmlmnffihkogl:roni o n V V o n nqnmkfffffggjmjoon 90-(>-; V V V V |
  1
300/ {rn {rn {lgl {lmg |
  1
<0:;8: {rn {lgm {lgm {koi {koh -:):-,:; {ljk {rn |
  1
<0:;8: {rn {lgl {lgl {ljh {lgk 90-(>-; {lgn {rn |
  1
:;8: {rn {kog {kog {lgl {kof 90-(>-; |
  1
):-+:' {rn {ljf {kno |
  1
:336/,:r<*-): {rn koqkfffffffffffffl hqfngihnjjlmkfighi nqhj rnqglifofjlohlljijf:roni rn o nqjimkffffgkoimklg rmqghonhnnlggklinoi:roni o n V V |
  1
/061+ {rn knqghkfffffgjfhkfj gqjklihnjjminmnggh nqhjooooooooooooli |
  1
<0:;8: {rn {lgg {lgg {lil {lgf -:):-,:; {knn {rn |
  1
:;8: {rn {knm {knm {lil {knl 90-(>-; |
  1
/:-,*=:1+r><>;L036;W6,+0-&r>++-6= {rn {rn {rn {lih n l no o |
  1
9><: {knk {knj {kni {m {rn {knh 90-(>-; ,6183: |
  1
300/ {rn {kng {knf {lih |
  1
<01:r,*-9><: {rn koqj lkqlgflfkngnmjigll nqhj rnqglifofjlohlljijf:roni rn o nqmnghjnfmjggmiojk rmqmlghlhomgmjlikij:roni o n V V o n nqmnghjnfmjggmiojk 90-(>-; V V V V |
  1
300/ {rn {rn {lfi {lkm |
  1
<0:;8: {rn {lfj {lfj {kmo {kmn -:):-,:; {lig {rn |
  1
<0:;8: {rn {lfi {lfi {lhn {lfh 90-(>-; {lfk {rn |
  1
:;8: {rn {kmm {kmm {lfi {kml 90-(>-; |
  1
):-+:' {rn {lhl {kmk |
  1
:336/,:r<*-): {rn koqj ljqnnkfjkonklimlig nqhj rnqglifofjlohlljijf:roni rn o nqlnmjolgfknfjmihi rmqknofjofnmlhmmoii:roni o n V V |
  1
/061+ {rn knqfoimjjhhoikmokg ljqnjgfngjojnmkngk nqhj |
  1
/:-,*=:1+r><>;L036;W6,+0-&r>++-6= {rn {rn {rn {lhg m k k o l mm o |
  1
300/ {rn {rn {kmj {lhg |
  1
/3>1:r,*-9><: {rn knqoimkfffffkmimkk jqfngihnjnlfhfjig nqhj rnqglifofjlohlljijf:roni rn o o ro rn 90-(>-;@) V V V V |
  1
300/ {rn {rn {koi {ljl |
  1
<0:;8: {rn {koj {koj {kmj {kmi -:):-,:; {lhf {rn |
  1
<0:;8: {rn {koi {koi {lgm {koh 90-(>-; {kok {rn |
  1
:;8: {rn {kmh {kmh {koi {kmg 90-(>-; |
  1
):-+:' {rn {lgk {kmf |
  1
:336/,:r<*-): {rn koqkfffffffffffffl iqgghkmnjjklonjmjk nqhj rnqglifofjlohlljijf:roni rn o nqnmkfffffggjmjon rmqoiijmlmnffihkofg:roni o n V V |
  1
/061+ {rn kmqoimkffffgkoimlg hqfngihnjjlmkfighi nqhjooooooooooooli |
  1
300/ {rn {klo {lgg {kln |
  1
):-+:' {rn {lgf {klm |
  1
:336/,:r<*-): {rn koqkfffffffffffffl mnqmgmklknjfkmhfnj nqhj rnqglifofjlohlljijf:roni rn o nqmlniifkohmlggmjf rmqmimkijmhmgiffiog:roni o n V V |
  1
/:-,*=:1+r><>;L036;W6,+0-&r>++-6= {rn {rn {rn {lfn n l f o |
  1
9><: {kll {klk {klj {m {rn {kli 90-(>-; ,6183: |
  1
300/ {rn {klh {klg {lfn |
  1
+0-*,r,*-9><: {rn koqj loqghfjlngkhgkmhgg nqhj rnqglifofjlohlljijf:roni rn o rhqoojfknlijmlffhoh gqfogjljjkkimmfgnf o o rn 90-(>-;@) V V V V |
  1
300/ {rn {rn {kmo {lih |
  1
<0:;8: {rn {knf {knf {klf {kko -:):-,:; {lfm {rn |
  1
<0:;8: {rn {kmo {kmo {lfj {kmn 90-(>-; {kng {rn |
  1
:;8: {rn {kkn {kkn {kmo {kkm 90-(>-; |
  1
):-+:' {rn {lfh {kkl |
  1
:336/,:r<*-): {rn koqj lkqgihfmjmjfgkjfnf nqhj rnqglifofjlohlljijf:roni rn o nqmggkonjlmolfhoif rmqliiihhojlinjkijm:roni o n V V |
  1
/061+ {rn knqgnmjolgfknfjmih ljqnnkfjkonklimlig nqhj |
  1
<0:;8: {rn {kmj {kmj {koj {kmi 90-(>-; {kom {rn |
  1
:;8: {rn {kkk {kkk {kmj {kkj 90-(>-; |
  1
):-+:' {rn {koh {kki |
  1
:336/,:r<*-): {rn koqkfffffffffffffl iqonmkmnjjjnfkonig nqhj rnqglifofjlohlljijf:roni rn o nqnmkfffffggjmjoon rmqoiijmlmnffihkogl:roni o n V V |
  1
/061+ {rn knqimkfffffggjmkfj iqgghkmnjjklonjmjk nqhjooooooooooooli |
  1
300/ {rn {rn {kkh {kln |
  1
9><: {kkg {llf {knn {m {rn {kkf 90-(>-; ,6183: |
  1
/061+ {rn knqhlniifkohmlggnf mnqmgmklknjfkmhfnj nqhj |
  1
/:-,*=:1+r><>;L036;W6,+0-&r>++-6= {rn {rn {rn {knj n l g o |
  1
9><: {kjo {kjn {kjm {m {rn {kjl 90-(>-; ,6183: |
  1
300/ {rn {kjk {kjj {knj |
  1
+0-*,r,*-9><: {rn koqj lmqhmmiijhmhhnmhlh nqhj rnqglifofjlohlljijf:roni rn o rnqgkioinnhlkgkkklk lqkmfkhiiffnfhoolm o o rn 90-(>-;@) V V V V |
  1
300/ {rn {rn {klf {lfn |
  1
<0:;8: {rn {klg {klg {kji {kjh -:):-,:; {kni {rn |
  1
<0:;8: {rn {klf {klf {knf {kko 90-(>-; {klh {rn |
  1
:;8: {rn {kjg {kjg {klf {kjf 90-(>-; |
  1
):-+:' {rn {kmn {kio |
  1
:336/,:r<*-): {rn koqj lkqkhilloonjhgjnii nqhj rnqglifofjlohlljijf:roni rn o nqmnghjnfmjggmjgnk rmqmlghlhomgmjliomn:roni o n V V |
  1
/061+ {rn knqhggkonjlmolfhoh lkqgihfmjmjfgkjfnf nqhj |
  1
):-+:' {rn {kmi {kin |
  1
:336/,:r<*-): {rn koqkfffffffffffffl jqfngihnjnlfhfjhjn nqhj rnqglifofjlohlljijf:roni rn o nqnmkfffffggjmjoon rmqoiijmlmnffihkogl:roni o n V V |
  1
/061+ {rn knqimkfffffggjmkfj iqonmkmnjjjnfkonig nqhjooooooooooooli |
  1
<0:;8: {rn {kkh {kkh {kim {kil 90-(>-; {klo {rn |
  1
/:-,*=:1+r><>;L036;W6,+0-&r>++-6= {rn {rn {rn {kln n l l o |
  1
+0-*,r,*-9><: {rn koqjoooooooooooooh hkqmomlonhmiiggjng nqhj rnqglifofjlohlljijf:roni rn o rnoioqnkgoogfnmnjmg noimqifgnlgihoonk o o rn 90-(>-;@) V V V V |
  1
/:-,*=:1+r><>;L036;W6,+0-&r>++-6= {rn {rn {rn {klk n l h o |
  1
9><: {kik {kij {kii {m {rn {kih 90-(>-; ,6183: |
  1
300/ {rn {kig {kif {klk |
  1
+0-*,r,*-9><: {rn koqj lmqjhjoghgginifnmf nqhj rnqglifofjlohlljijf:roni rn o rmqhinfoklknlfohhoh kqljimikiokmjoglnn o o rn 90-(>-;@) V V V V |
  1
300/ {rn {rn {kji {knj |
  1
<0:;8: {rn {kjj {kjj {kho {khn -:):-,:; {klj {rn |
  1
<0:;8: {rn {kji {kji {klg {kjh 90-(>-; {kjk {rn |
  1
:;8: {rn {khm {khm {kji {khl 90-(>-; |
  1
):-+:' {rn {kko {khk |
  1
:336/,:r<*-): {rn koqj lkqlomkjglkihmgj nqhj rnqglifofjlohlljijf:roni rn o nqmnghjnfmjggmimfk rmqmlghlhomgmjlifol:roni o n V V |
  1
/061+ {rn knqhnghjnfmjggmjhf lkqkhilloonjhgjnii nqhj |
  1
/061+ {rn knqimkfffffggjmkfj jqfngihnjnlfhfjhjn nqhj |
  1
<0:;8: {rn {kim {kim {kkh {kil -:):-,:; {khj {rn |
  1
:;8: {rn {khi {khi {kkh {khh 90-(>-; |
  1
/:-,*=:1+r><>;L036;W6,+0-&r>++-6= {rn {rn {rn {kjn n l i o |
  1
9><: {khg {khf {kgo {m {rn {kgn 90-(>-; ,6183: |
  1
300/ {rn {kgm {kgl {kjn |
  1
+0-*,r,*-9><: {rn koqj lnqmjfmolnonhlifhi nqhj rnqglifofjlohlljijf:roni rn o rlnqkfmnkkoikfolimk llqnnijkfjglhfhnln o o rn 90-(>-;@) V V V V |
  1
300/ {rn {rn {kho {klk |
  1
<0:;8: {rn {kif {kif {kgk {kgj -:):-,:; {kjm {rn |
  1
<0:;8: {rn {kho {kho {kjj {khn 90-(>-; {kig {rn |
  1
:;8: {rn {kgi {kgi {kho {kgh 90-(>-; |
  1
):-+:' {rn {kjh {kgg |
  1
:336/,:r<*-): {rn koqj llqfnmolnfnffgjijn nqhj rnqglifofjlohlljijf:roni rn o nqlhojholhoifjkfnf rmqjnhinlhhikhnjgjh:roni o n V V |
  1
/061+ {rn knqhnghjnfmjggmimg lkqlomkjglkihmgj nqhj |
  1
300/ {rn {kgf {kim {khf |
  1
):-+:' {rn {kil {kfo |
  1
:336/,:r<*-): {rn koqj miqglhmfffknkflonj nqhj rnqglifofjlohlljijf:roni rn o nqkfkoilhflkmhjgji rmqhkkkioomnihnohhl:roni o n V V |
  1
/:-,*=:1+r><>;L036;W6,+0-&r>++-6= {rn {rn {rn {kij n l j o |
  1
9><: {kfn {kln {khj {m {rn {kfm 90-(>-; ,6183: |
  1
300/ {rn {kfl {kfk {kij |
  1
+0-*,r,*-9><: {rn koqj loqffmfkgfglhlnmfm nqhj rnqglifofjlohlljijf:roni rn o rjmqjjhjgmlonfkgogn jkqngljofnkmnokfgn o o rn 90-(>-;@) V V V V |
  1
300/ {rn {rn {kgk {kjn |
  1
<0:;8: {rn {kgl {kgl {kfj {kfi -:):-,:; {kii {rn |
  1
<0:;8: {rn {kgk {kgk {kif {kgj 90-(>-; {kgm {rn |
  1
:;8: {rn {kfh {kfh {kgk {kfg 90-(>-; |
  1
):-+:' {rn {khn {kff |
  1
:336/,:r<*-): {rn koqj llqklmhinmhookkhj nqhj rnqglifofjlohlljijf:roni rn o nqjofofjmigilkfijm rmqhhmohnkgnhkokfgk:roni o n V V |
  1
/061+ {rn knqghojholhoifjkgf llqfnmolnfnffgjijn nqhj |
  1
300/ {rn {rn {joo {khf |
  1
/061+ {rn knqffkoilhflkmhjgi miqglhmfffknkflonj nqhj |
  1
/:-,*=:1+r><>;L036;W6,+0-&r>++-6= {rn {rn {rn {khf n l k o |
  1
+0-*,r,*-9><: {rn koqj liqjikgmhojoioonij nqhj rnqglifofjlohlljijf:roni rn o rnfjqmfinmnnlggomji nfhqolokjghlkfghjj o o rn 90-(>-;@) V V V V |
  1
300/ {rn {rn {kfj {kij |
  1
<0:;8: {rn {kfk {kfk {joo {jon -:):-,:; {kgo {rn |
  1
<0:;8: {rn {kfj {kfj {kgl {kfi 90-(>-; {kfl {rn |
  1
:;8: {rn {jom {jom {kfj {jol 90-(>-; |
  1
):-+:' {rn {kgj {jok |
  1
:336/,:r<*-): {rn koqj lmqhkhmkgnhnmjlfgi nqhj rnqglifofjlohlljijf:roni rn o nqjfofjholmmfoiffk rmqfmmkkknljiomlhjm:roni o n V V |
  1
/061+ {rn kmqoofofjmigilkfij llqklmhinmhookkhj nqhj |
  1
<0:;8: {rn {joo {joo {kfk {jon 90-(>-; {kgf {rn |
  1
:;8: {rn {joj {joj {joo {joi 90-(>-; |
  1
):-+:' {rn {kfi {joh |
  1
:336/,:r<*-): {rn koqj lnqgklkimgolkkhfji nqhj rnqglifofjlohlljijf:roni rn o nqinfmjnmogmgoihmf rmqfhkknhfhhnkminoi:roni o n V V |
  1
/061+ {rn kmqofofjholmmfoifi lmqhkhmkgnhnmjlfgi nqhj |
  1
):-+:' {rn {jon {jog |
  1
:336/,:r<*-): {rn koqj mgqiigkniommonhgfk nqhj rnqglifofjlohlljijf:roni rn o nqjhioknlkhgfninhg rmqgfjokjlhmhhmmggl:roni o n V V |
  1
/061+ {rn kmqnnfmjnmogmgoihl lnqgklkimgolkkhfji nqhj |
  1
/061+ {rn kmqohioknlkhgfning mgqiigkniommonhgfk nqhj |
  0
ENDSEC
  0
SECTION
  2
OBJECTS
  0
DICTIONARY
  5
C
330
0
100
AcDbDictionary
281
     1
  3
ACAD_2007HEADERVARS_RT
350
CC7
  3
ACAD_BACKGROUND
350
CBF
  3
ACAD_COLOR
350
B5
  3
ACAD_GROUP
350
D
  3
ACAD_LAYOUT
350
1A
  3
ACAD_MATERIAL
350
B4
  3
ACAD_MLEADERSTYLE
350
1B3
  3
ACAD_MLINESTYLE
350
17
  3
ACAD_PERSUBENTMGR
350
1F9
  3
ACAD_PLOTSETTINGS
350
19
  3
ACAD_PLOTSTYLENAME
350
E
  3
ACAD_SCALELIST
350
191
  3
ACAD_TABLESTYLE
350
B6
  3
ACAD_VISUALSTYLE
350
180
  3
ACDB_RECOMPOSE_DATA
350
CC5
  3
AcDbVariableDictionary
350
15F
  3
AEC_PROPERTY_SET_DEFS
350
51B
  3
DWGPROPS
350
CC6
  0
DICTIONARY
  5
244
330
2
100
AcDbDictionary
280
     1
281
     1
  3
ACAD_LAYERSTATES
360
245
  0
DICTIONARY
  5
B83
330
10
100
AcDbDictionary
280
     1
281
     1
  3
ADSK_XREC_LAYER_RECONCILED
360
B84
  0
DICTIONARY
  5
B85
330
AB
100
AcDbDictionary
280
     1
281
     1
  3
ADSK_XREC_LAYER_RECONCILED
360
B86
  0
DICTIONARY
  5
C1B
330
1F
100
AcDbDictionary
280
     1
281
     1
  3
ACAD_SORTENTS
360
C1C
  0
DICTIONARY
  5
CC7
102
{ACAD_REACTORS
330
C
102
}
330
C
100
AcDbDictionary
281
     1
  3
DIMFXL
350
CC8
  0
DICTIONARY
  5
CBF
102
{ACAD_REACTORS
330
C
102
}
330
C
100
AcDbDictionary
281
     1
  0
DICTIONARY
  5
B5
102
{ACAD_REACTORS
330
C
102
}
330
C
100
AcDbDictionary
281
     1
  0
DICTIONARY
  5
D
102
{ACAD_REACTORS
330
C
102
}
330
C
100
AcDbDictionary
281
     1
  0
DICTIONARY
  5
1A
102
{ACAD_REACTORS
330
C
102
}
330
C
100
AcDbDictionary
281
     1
  3
Layout1
350
1E
  3
Layout2
350
26
  3
Model
350
22
  0
DICTIONARY
  5
B4
102
{ACAD_REACTORS
330
C
102
}
330
C
100
AcDbDictionary
281
     1
  3
ByBlock
350
170
  3
ByLayer
350
168
  3
Global
350
178
  0
DICTIONARY
  5
1B3
102
{ACAD_REACTORS
330
C
102
}
330
C
100
AcDbDictionary
281
     1
  3
Standard
350
1B4
  0
DICTIONARY
  5
17
102
{ACAD_REACTORS
330
C
102
}
330
C
100
AcDbDictionary
281
     1
  3
Standard
350
18
  0
ACDBPERSSUBENTMANAGER
  5
1F9
102
{ACAD_REACTORS
330
C
102
}
330
C
100
AcDbPersSubentManager
 90
        2
 90
        0
 90
        2
 90
        4
 90
        0
 90
        2
 90
        3
 90
        4
  0
DICTIONARY
  5
19
102
{ACAD_REACTORS
330
C
102
}
330
C
100
AcDbDictionary
281
     1
  0
ACDBDICTIONARYWDFLT
  5
E
102
{ACAD_REACTORS
330
C
102
}
330
C
100
AcDbDictionary
281
     1
  3
Normal
350
F
100
AcDbDictionaryWithDefault
340
F
  0
DICTIONARY
  5
191
102
{ACAD_REACTORS
330
C
102
}
330
C
100
AcDbDictionary
281
     1
  3
A0
350
192
  3
A1
350
193
  3
A2
350
194
  3
A3
350
195
  3
A4
350
196
  3
A5
350
197
  3
A6
350
198
  3
A7
350
199
  3
A8
350
19A
  3
A9
350
19B
  3
B0
350
19C
  3
B1
350
19D
  3
B2
350
19E
  3
B3
350
19F
  3
B4
350
1A0
  3
B5
350
1A1
  3
B6
350
1A2
  3
B7
350
1A3
  3
B8
350
1A4
  3
B9
350
1A5
  3
C0
350
1A6
  3
C1
350
1A7
  3
C2
350
1A8
  3
C3
350
1A9
  3
C4
350
1AA
  3
C5
350
1AB
  3
C6
350
1AC
  3
C7
350
1AD
  3
C8
350
1AE
  3
C9
350
1AF
  3
D0
350
1B0
  3
D1
350
1B1
  3
D2
350
1B2
  0
DICTIONARY
  5
B6
102
{ACAD_REACTORS
330
C
102
}
330
C
100
AcDbDictionary
281
     1
  3
Standard
350
B7
  0
DICTIONARY
  5
180
102
{ACAD_REACTORS
330
C
102
}
330
C
100
AcDbDictionary
281
     1
  3
2dWireframe
350
186
  3
3D Hidden
350
188
  3
3dWireframe
350
187
  3
Basic
350
185
  3
Brighten
350
18C
  3
ColorChange
350
190
  3
Conceptual
350
189
  3
Dim
350
18B
  3
EdgeColorOff
350
1FE
  3
Facepattern
350
18F
  3
Flat
350
181
  3
FlatWithEdges
350
182
  3
Gouraud
350
183
  3
GouraudWithEdges
350
184
  3
JitterOff
350
1FC
  3
Linepattern
350
18E
  3
OverhangOff
350
1FD
  3
Realistic
350
18A
  3
Thicken
350
18D
  0
XRECORD
  5
CC5
102
{ACAD_REACTORS
330
C
102
}
330
C
100
AcDbXrecord
280
     1
 90
        1
330
B7
  0
DICTIONARY
  5
15F
102
{ACAD_REACTORS
330
C
102
}
330
C
100
AcDbDictionary
281
     1
  3
CANNOSCALE
350
1E5
  3
CMLEADERSTYLE
350
1E3
  3
CTABLESTYLE
350
160
  3
DIMASSOC
350
B8A
  3
INDEXCTL
350
B88
  3
LIGHTINGUNITS
350
1E6
  3
MSLTSCALE
350
1E4
  3
SORTENTS
350
B87
  3
XCLIPFRAME
350
CC3
  0
DICTIONARY
  5
51B
102
{ACAD_REACTORS
330
C
102
}
330
C
100
AcDbDictionary
281
     1
  0
XRECORD
  5
CC6
102
{ACAD_REACTORS
330
C
102
}
330
C
100
AcDbXrecord
280
     1
  1
DWGPROPS COOKIE
  2

  3

  4

  6

  7

  8
Haden
  9

300
=
301
=
302
=
303
=
304
=
305
=
306
=
307
=
308
=
309
=
 40
0.0271314930555556
 41
2455345.447112824
 42
2455485.463285185
  1

 90
        0
  0
DICTIONARY
  5
245
102
{ACAD_REACTORS
330
244
102
}
330
244
100
AcDbDictionary
281
     1
  0
XRECORD
  5
B84
102
{ACAD_REACTORS
330
B83
102
}
330
B83
100
AcDbXrecord
280
     1
290
     1
  0
XRECORD
  5
B86
102
{ACAD_REACTORS
330
B85
102
}
330
B85
100
AcDbXrecord
280
     1
290
     1
  0
SORTENTSTABLE
  5
C1C
102
{ACAD_REACTORS
330
C1B
102
}
330
C1B
100
AcDbSortentsTable
330
1F
  0
XRECORD
  5
CC8
102
{ACAD_REACTORS
330
CC7
102
}
330
CC7
100
AcDbXrecord
280
     1
 40
0.18
  0
LAYOUT
  5
1E
102
{ACAD_XDICTIONARY
360
CC9
102
}
102
{ACAD_REACTORS
330
1A
102
}
330
1A
100
AcDbPlotSettings
  1

  2

  4

  6

 40
0.0
 41
0.0
 42
0.0
 43
0.0
 44
0.0
 45
0.0
 46
0.0
 47
0.0
 48
0.0
 49
0.0
140
0.0
141
0.0
142
1.0
143
1.0
 70
   688
 72
     0
 73
     0
 74
     5
  7

 75
    16
147
1.0
148
0.0
149
0.0
100
AcDbLayout
  1
Layout1
 70
     1
 71
     1
 10
0.0
 20
0.0
 11
12.0
 21
9.0
 12
0.0
 22
0.0
 32
0.0
 14
1.000000000000000E+20
 24
1.000000000000000E+20
 34
1.000000000000000E+20
 15
-1.000000000000000E+20
 25
-1.000000000000000E+20
 35
-1.000000000000000E+20
146
0.0
 13
0.0
 23
0.0
 33
0.0
 16
1.0
 26
0.0
 36
0.0
 17
0.0
 27
1.0
 37
0.0
 76
     0
330
1B
  0
LAYOUT
  5
26
102
{ACAD_XDICTIONARY
360
CCD
102
}
102
{ACAD_REACTORS
330
1A
102
}
330
1A
100
AcDbPlotSettings
  1

  2

  4

  6

 40
0.0
 41
0.0
 42
0.0
 43
0.0
 44
0.0
 45
0.0
 46
0.0
 47
0.0
 48
0.0
 49
0.0
140
0.0
141
0.0
142
1.0
143
1.0
 70
   688
 72
     0
 73
     0
 74
     5
  7

 75
    16
147
1.0
148
0.0
149
0.0
100
AcDbLayout
  1
Layout2
 70
     1
 71
     2
 10
0.0
 20
0.0
 11
12.0
 21
9.0
 12
0.0
 22
0.0
 32
0.0
 14
0.0
 24
0.0
 34
0.0
 15
0.0
 25
0.0
 35
0.0
146
0.0
 13
0.0
 23
0.0
 33
0.0
 16
1.0
 26
0.0
 36
0.0
 17
0.0
 27
1.0
 37
0.0
 76
     0
330
23
  0
LAYOUT
  5
22
102
{ACAD_XDICTIONARY
360
CCB
102
}
102
{ACAD_REACTORS
330
1A
102
}
330
1A
100
AcDbPlotSettings
  1

  2

  4

  6

 40
0.0
 41
0.0
 42
0.0
 43
0.0
 44
0.0
 45
0.0
 46
0.0
 47
0.0
 48
0.0
 49
0.0
140
0.0
141
0.0
142
1.0
143
1.0
 70
  1712
 72
     0
 73
     0
 74
     0
  7

 75
     0
147
1.0
148
0.0
149
0.0
100
AcDbLayout
  1
Model
 70
     1
 71
     0
 10
0.0
 20
0.0
 11
12.0
 21
9.0
 12
0.0
 22
0.0
 32
0.0
 14
0.0
 24
0.0
 34
0.0
 15
0.0
 25
0.0
 35
0.0
146
0.0
 13
0.0
 23
0.0
 33
0.0
 16
1.0
 26
0.0
 36
0.0
 17
0.0
 27
1.0
 37
0.0
 76
     0
330
1F
331
166
  0
MATERIAL
  5
170
102
{ACAD_XDICTIONARY
360
171
102
}
102
{ACAD_REACTORS
330
B4
102
}
330
B4
100
AcDbMaterial
  1
ByBlock
 72
     0
 43
0.0208333333333333
 43
0.0
 43
0.0
 43
0.0
 43
0.0
 43
0.0208333333333333
 43
0.0
 43
0.0
 43
0.0
 43
0.0
 43
1.0
 43
0.0
 43
0.0
 43
0.0
 43
0.0
 43
1.0
 77
     0
 47
0.0208333333333333
 47
0.0
 47
0.0
 47
0.0
 47
0.0
 47
0.0208333333333333
 47
0.0
 47
0.0
 47
0.0
 47
0.0
 47
1.0
 47
0.0
 47
0.0
 47
0.0
 47
0.0
 47
1.0
171
     0
 49
0.0208333333333333
 49
0.0
 49
0.0
 49
0.0
 49
0.0
 49
0.0208333333333333
 49
0.0
 49
0.0
 49
0.0
 49
0.0
 49
1.0
 49
0.0
 49
0.0
 49
0.0
 49
0.0
 49
1.0
175
     0
142
0.0208333333333333
142
0.0
142
0.0
142
0.0
142
0.0
142
0.0208333333333333
142
0.0
142
0.0
142
0.0
142
0.0
142
1.0
142
0.0
142
0.0
142
0.0
142
0.0
142
1.0
179
     0
144
0.0208333333333333
144
0.0
144
0.0
144
0.0
144
0.0
144
0.0208333333333333
144
0.0
144
0.0
144
0.0
144
0.0
144
1.0
144
0.0
144
0.0
144
0.0
144
0.0
144
1.0
147
0.0208333333333333
147
0.0
147
0.0
147
0.0
147
0.0
147
0.0208333333333333
147
0.0
147
0.0
147
0.0
147
0.0
147
1.0
147
0.0
147
0.0
147
0.0
147
0.0
147
1.0
  0
MATERIAL
  5
168
102
{ACAD_XDICTIONARY
360
169
102
}
102
{ACAD_REACTORS
330
B4
102
}
330
B4
100
AcDbMaterial
  1
ByLayer
 72
     0
 43
0.0208333333333333
 43
0.0
 43
0.0
 43
0.0
 43
0.0
 43
0.0208333333333333
 43
0.0
 43
0.0
 43
0.0
 43
0.0
 43
1.0
 43
0.0
 43
0.0
 43
0.0
 43
0.0
 43
1.0
 77
     0
 47
0.0208333333333333
 47
0.0
 47
0.0
 47
0.0
 47
0.0
 47
0.0208333333333333
 47
0.0
 47
0.0
 47
0.0
 47
0.0
 47
1.0
 47
0.0
 47
0.0
 47
0.0
 47
0.0
 47
1.0
171
     0
 49
0.0208333333333333
 49
0.0
 49
0.0
 49
0.0
 49
0.0
 49
0.0208333333333333
 49
0.0
 49
0.0
 49
0.0
 49
0.0
 49
1.0
 49
0.0
 49
0.0
 49
0.0
 49
0.0
 49
1.0
175
     0
142
0.0208333333333333
142
0.0
142
0.0
142
0.0
142
0.0
142
0.0208333333333333
142
0.0
142
0.0
142
0.0
142
0.0
142
1.0
142
0.0
142
0.0
142
0.0
142
0.0
142
1.0
179
     0
144
0.0208333333333333
144
0.0
144
0.0
144
0.0
144
0.0
144
0.0208333333333333
144
0.0
144
0.0
144
0.0
144
0.0
144
1.0
144
0.0
144
0.0
144
0.0
144
0.0
144
1.0
147
0.0208333333333333
147
0.0
147
0.0
147
0.0
147
0.0
147
0.0208333333333333
147
0.0
147
0.0
147
0.0
147
0.0
147
1.0
147
0.0
147
0.0
147
0.0
147
0.0
147
1.0
  0
MATERIAL
  5
178
102
{ACAD_XDICTIONARY
360
179
102
}
102
{ACAD_REACTORS
330
B4
102
}
330
B4
100
AcDbMaterial
  1
Global
 72
     0
 43
0.0208333333333333
 43
0.0
 43
0.0
 43
0.0
 43
0.0
 43
0.0208333333333333
 43
0.0
 43
0.0
 43
0.0
 43
0.0
 43
1.0
 43
0.0
 43
0.0
 43
0.0
 43
0.0
 43
1.0
 77
     0
 47
0.0208333333333333
 47
0.0
 47
0.0
 47
0.0
 47
0.0
 47
0.0208333333333333
 47
0.0
 47
0.0
 47
0.0
 47
0.0
 47
1.0
 47
0.0
 47
0.0
 47
0.0
 47
0.0
 47
1.0
171
     0
 49
0.0208333333333333
 49
0.0
 49
0.0
 49
0.0
 49
0.0
 49
0.0208333333333333
 49
0.0
 49
0.0
 49
0.0
 49
0.0
 49
1.0
 49
0.0
 49
0.0
 49
0.0
 49
0.0
 49
1.0
175
     0
142
0.0208333333333333
142
0.0
142
0.0
142
0.0
142
0.0
142
0.0208333333333333
142
0.0
142
0.0
142
0.0
142
0.0
142
1.0
142
0.0
142
0.0
142
0.0
142
0.0
142
1.0
179
     0
144
0.0208333333333333
144
0.0
144
0.0
144
0.0
144
0.0
144
0.0208333333333333
144
0.0
144
0.0
144
0.0
144
0.0
144
1.0
144
0.0
144
0.0
144
0.0
144
0.0
144
1.0
147
0.0208333333333333
147
0.0
147
0.0
147
0.0
147
0.0
147
0.0208333333333333
147
0.0
147
0.0
147
0.0
147
0.0
147
1.0
147
0.0
147
0.0
147
0.0
147
0.0
147
1.0
  0
MLEADERSTYLE
  5
1B4
102
{ACAD_REACTORS
330
1B3
102
}
330
1B3
100
AcDbMLeaderStyle
170
     2
171
     1
172
     0
 90
        2
 40
0.0
 41
0.0
173
     1
 91
-1056964608
340
14
 92
       -2
290
     1
 42
0.09
291
     1
 43
0.36
  3
Standard
 44
0.18
300

342
11
174
     1
178
     6
175
     1
176
     0
 93
-1056964608
 45
0.18
292
     0
297
     0
 46
0.18
 94
-1056964608
 47
1.0
 49
1.0
140
1.0
293
     1
141
0.0
294
     1
177
     0
142
1.0
295
     0
296
     0
143
0.125
1001
ACAD_MLEADERVER
1070
     2
  0
MLINESTYLE
  5
18
102
{ACAD_REACTORS
330
17
102
}
330
17
100
AcDbMlineStyle
  2
STANDARD
 70
     0
  3

 62
   256
 51
90.0
 52
90.0
 71
     2
 49
0.5
 62
   256
  6
BYLAYER
 49
-0.5
 62
   256
  6
BYLAYER
  0
ACDBPLACEHOLDER
  5
F
102
{ACAD_REACTORS
330
E
102
}
330
E
  0
SCALE
  5
192
102
{ACAD_REACTORS
330
191
102
}
330
191
100
AcDbScale
 70
     0
300
1:1
140
1.0
141
1.0
290
     1
  0
SCALE
  5
193
102
{ACAD_REACTORS
330
191
102
}
330
191
100
AcDbScale
 70
     0
300
1:2
140
1.0
141
2.0
290
     0
  0
SCALE
  5
194
102
{ACAD_REACTORS
330
191
102
}
330
191
100
AcDbScale
 70
     0
300
1:4
140
1.0
141
4.0
290
     0
  0
SCALE
  5
195
102
{ACAD_REACTORS
330
191
102
}
330
191
100
AcDbScale
 70
     0
300
1:5
140
1.0
141
5.0
290
     0
  0
SCALE
  5
196
102
{ACAD_REACTORS
330
191
102
}
330
191
100
AcDbScale
 70
     0
300
1:8
140
1.0
141
8.0
290
     0
  0
SCALE
  5
197
102
{ACAD_REACTORS
330
191
102
}
330
191
100
AcDbScale
 70
     0
300
1:10
140
1.0
141
10.0
290
     0
  0
SCALE
  5
198
102
{ACAD_REACTORS
330
191
102
}
330
191
100
AcDbScale
 70
     0
300
1:16
140
1.0
141
16.0
290
     0
  0
SCALE
  5
199
102
{ACAD_REACTORS
330
191
102
}
330
191
100
AcDbScale
 70
     0
300
1:20
140
1.0
141
20.0
290
     0
  0
SCALE
  5
19A
102
{ACAD_REACTORS
330
191
102
}
330
191
100
AcDbScale
 70
     0
300
1:30
140
1.0
141
30.0
290
     0
  0
SCALE
  5
19B
102
{ACAD_REACTORS
330
191
102
}
330
191
100
AcDbScale
 70
     0
300
1:40
140
1.0
141
40.0
290
     0
  0
SCALE
  5
19C
102
{ACAD_REACTORS
330
191
102
}
330
191
100
AcDbScale
 70
     0
300
1:50
140
1.0
141
50.0
290
     0
  0
SCALE
  5
19D
102
{ACAD_REACTORS
330
191
102
}
330
191
100
AcDbScale
 70
     0
300
1:100
140
1.0
141
100.0
290
     0
  0
SCALE
  5
19E
102
{ACAD_REACTORS
330
191
102
}
330
191
100
AcDbScale
 70
     0
300
2:1
140
2.0
141
1.0
290
     0
  0
SCALE
  5
19F
102
{ACAD_REACTORS
330
191
102
}
330
191
100
AcDbScale
 70
     0
300
4:1
140
4.0
141
1.0
290
     0
  0
SCALE
  5
1A0
102
{ACAD_REACTORS
330
191
102
}
330
191
100
AcDbScale
 70
     0
300
8:1
140
8.0
141
1.0
290
     0
  0
SCALE
  5
1A1
102
{ACAD_REACTORS
330
191
102
}
330
191
100
AcDbScale
 70
     0
300
10:1
140
10.0
141
1.0
290
     0
  0
SCALE
  5
1A2
102
{ACAD_REACTORS
330
191
102
}
330
191
100
AcDbScale
 70
     0
300
100:1
140
100.0
141
1.0
290
     0
  0
SCALE
  5
1A3
102
{ACAD_REACTORS
330
191
102
}
330
191
100
AcDbScale
 70
     0
300
1/128" = 1'-0"
140
0.0078125
141
12.0
290
     0
  0
SCALE
  5
1A4
102
{ACAD_REACTORS
330
191
102
}
330
191
100
AcDbScale
 70
     0
300
1/64" = 1'-0"
140
0.015625
141
12.0
290
     0
  0
SCALE
  5
1A5
102
{ACAD_REACTORS
330
191
102
}
330
191
100
AcDbScale
 70
     0
300
1/32" = 1'-0"
140
0.03125
141
12.0
290
     0
  0
SCALE
  5
1A6
102
{ACAD_REACTORS
330
191
102
}
330
191
100
AcDbScale
 70
     0
300
1/16" = 1'-0"
140
0.0625
141
12.0
290
     0
  0
SCALE
  5
1A7
102
{ACAD_REACTORS
330
191
102
}
330
191
100
AcDbScale
 70
     0
300
3/32" = 1'-0"
140
0.09375
141
12.0
290
     0
  0
SCALE
  5
1A8
102
{ACAD_REACTORS
330
191
102
}
330
191
100
AcDbScale
 70
     0
300
1/8" = 1'-0"
140
0.125
141
12.0
290
     0
  0
SCALE
  5
1A9
102
{ACAD_REACTORS
330
191
102
}
330
191
100
AcDbScale
 70
     0
300
3/16" = 1'-0"
140
0.1875
141
12.0
290
     0
  0
SCALE
  5
1AA
102
{ACAD_REACTORS
330
191
102
}
330
191
100
AcDbScale
 70
     0
300
1/4" = 1'-0"
140
0.25
141
12.0
290
     0
  0
SCALE
  5
1AB
102
{ACAD_REACTORS
330
191
102
}
330
191
100
AcDbScale
 70
     0
300
3/8" = 1'-0"
140
0.375
141
12.0
290
     0
  0
SCALE
  5
1AC
102
{ACAD_REACTORS
330
191
102
}
330
191
100
AcDbScale
 70
     0
300
1/2" = 1'-0"
140
0.5
141
12.0
290
     0
  0
SCALE
  5
1AD
102
{ACAD_REACTORS
330
191
102
}
330
191
100
AcDbScale
 70
     0
300
3/4" = 1'-0"
140
0.75
141
12.0
290
     0
  0
SCALE
  5
1AE
102
{ACAD_REACTORS
330
191
102
}
330
191
100
AcDbScale
 70
     0
300
1" = 1'-0"
140
1.0
141
12.0
290
     0
  0
SCALE
  5
1AF
102
{ACAD_REACTORS
330
191
102
}
330
191
100
AcDbScale
 70
     0
300
1-1/2" = 1'-0"
140
1.5
141
12.0
290
     0
  0
SCALE
  5
1B0
102
{ACAD_REACTORS
330
191
102
}
330
191
100
AcDbScale
 70
     0
300
3" = 1'-0"
140
3.0
141
12.0
290
     0
  0
SCALE
  5
1B1
102
{ACAD_REACTORS
330
191
102
}
330
191
100
AcDbScale
 70
     0
300
6" = 1'-0"
140
6.0
141
12.0
290
     0
  0
SCALE
  5
1B2
102
{ACAD_REACTORS
330
191
102
}
330
191
100
AcDbScale
 70
     0
300
1'-0" = 1'-0"
140
12.0
141
12.0
290
     0
  0
TABLESTYLE
  5
B7
102
{ACAD_XDICTIONARY
360
1E0
102
}
102
{ACAD_REACTORS
330
B6
102
}
330
B6
100
AcDbTableStyle
  3
Standard
 70
     0
 71
     0
 40
0.06
 41
0.06
280
     0
281
     0
  7
Standard
140
0.18
170
     2
 62
     0
 63
     7
283
     0
274
    -2
284
     1
 64
     0
275
    -2
285
     1
 65
     0
276
    -2
286
     1
 66
     0
277
    -2
287
     1
 67
     0
278
    -2
288
     1
 68
     0
279
    -2
289
     1
 69
     0
  7
Standard
140
0.25
170
     5
 62
     0
 63
     7
283
     0
274
    -2
284
     1
 64
     0
275
    -2
285
     1
 65
     0
276
    -2
286
     1
 66
     0
277
    -2
287
     1
 67
     0
278
    -2
288
     1
 68
     0
279
    -2
289
     1
 69
     0
  7
Standard
140
0.18
170
     5
 62
     0
 63
     7
283
     0
274
    -2
284
     1
 64
     0
275
    -2
285
     1
 65
     0
276
    -2
286
     1
 66
     0
277
    -2
287
     1
 67
     0
278
    -2
288
     1
 68
     0
279
    -2
289
     1
 69
     0
  0
VISUALSTYLE
  5
186
102
{ACAD_XDICTIONARY
360
CDA
102
}
102
{ACAD_REACTORS
330
180
102
}
330
180
100
AcDbVisualStyle
  2

 70
     4
 71
     0
 72
     2
 73
     0
 90
        0
 40
-0.6
 41
-30.0
 62
     5
 63
     7
 74
     1
 91
        4
 64
     7
 65
   257
 75
     1
175
     1
 42
1.0
 92
        0
 66
   257
 43
1.0
 76
     1
 77
     6
 78
     2
 67
     7
 79
     5
170
     0
171
     0
290
     0
174
     0
 93
        1
 44
0.0
173
     0
291
     0
 45
0.0
1001
ACAD
1000
AcDbSavedByObjectVersion
1070
     0
  0
VISUALSTYLE
  5
188
102
{ACAD_XDICTIONARY
360
CDE
102
}
102
{ACAD_REACTORS
330
180
102
}
330
180
100
AcDbVisualStyle
  2

 70
     6
 71
     1
 72
     2
 73
     2
 90
        0
 40
-0.6
 41
-30.0
 62
     5
 63
     7
 74
     2
 91
        2
 64
     7
 65
   257
 75
     2
175
     1
 42
40.0
 92
        0
 66
   257
 43
1.0
 76
     1
 77
     6
 78
     2
 67
     7
 79
     3
170
     0
171
     0
290
     0
174
     0
 93
        1
 44
0.0
173
     0
291
     0
 45
0.0
1001
ACAD
1000
AcDbSavedByObjectVersion
1070
     0
  0
VISUALSTYLE
  5
187
102
{ACAD_XDICTIONARY
360
CDC
102
}
102
{ACAD_REACTORS
330
180
102
}
330
180
100
AcDbVisualStyle
  2

 70
     5
 71
     0
 72
     2
 73
     0
 90
        0
 40
-0.6
 41
-30.0
 62
     5
 63
     7
 74
     1
 91
        4
 64
     7
 65
   257
 75
     1
175
     1
 42
1.0
 92
        0
 66
   257
 43
1.0
 76
     1
 77
     6
 78
     2
 67
     7
 79
     5
170
     0
171
     0
290
     0
174
     0
 93
        1
 44
0.0
173
     0
291
     0
 45
0.0
1001
ACAD
1000
AcDbSavedByObjectVersion
1070
     0
  0
VISUALSTYLE
  5
185
102
{ACAD_XDICTIONARY
360
CD8
102
}
102
{ACAD_REACTORS
330
180
102
}
330
180
100
AcDbVisualStyle
  2

 70
     7
 71
     1
 72
     0
 73
     1
 90
        0
 40
-0.6
 41
-30.0
 62
     5
 63
     7
 74
     0
 91
        4
 64
     7
 65
   257
 75
     1
175
     1
 42
1.0
 92
        8
 66
     7
 43
1.0
 76
     1
 77
     6
 78
     2
 67
     7
 79
     5
170
     0
171
     0
290
     0
174
     0
 93
        1
 44
0.0
173
     0
291
     1
 45
0.0
1001
ACAD
1000
AcDbSavedByObjectVersion
1070
     0
  0
VISUALSTYLE
  5
18C
102
{ACAD_XDICTIONARY
360
CE6
102
}
102
{ACAD_REACTORS
330
180
102
}
330
180
100
AcDbVisualStyle
  2

 70
    12
 71
     2
 72
     2
 73
     0
 90
        0
 40
-0.6
 41
-30.0
 62
     5
 63
     7
 74
     1
 91
        4
 64
     7
 65
   257
 75
     1
175
     1
 42
1.0
 92
        8
 66
     7
 43
1.0
 76
     1
 77
     6
 78
     2
 67
     7
 79
     5
170
     0
171
     0
290
     0
174
     0
 93
        1
 44
50.0
173
     0
291
     1
 45
0.0
1001
ACAD
1000
AcDbSavedByObjectVersion
1070
     0
  0
VISUALSTYLE
  5
190
102
{ACAD_XDICTIONARY
360
CEE
102
}
102
{ACAD_REACTORS
330
180
102
}
330
180
100
AcDbVisualStyle
  2

 70
    16
 71
     2
 72
     2
 73
     3
 90
        0
 40
-0.6
 41
-30.0
 62
     5
 63
     8
 74
     1
 91
        4
 64
     7
 65
   257
 75
     1
175
     1
 42
1.0
 92
        8
 66
     8
 43
1.0
 76
     1
 77
     6
 78
     2
 67
     7
 79
     5
170
     0
171
     0
290
     0
174
     0
 93
        1
 44
0.0
173
     0
291
     1
 45
0.0
1001
ACAD
1000
AcDbSavedByObjectVersion
1070
     0
  0
VISUALSTYLE
  5
189
102
{ACAD_XDICTIONARY
360
CE0
102
}
102
{ACAD_REACTORS
330
180
102
}
330
180
100
AcDbVisualStyle
  2

 70
     9
 71
     3
 72
     2
 73
     0
 90
        0
 40
-0.6
 41
-30.0
 62
     5
 63
     7
 74
     2
 91
        2
 64
     7
 65
   257
 75
     1
175
     1
 42
40.0
 92
        8
 66
     7
 43
1.0
 76
     1
 77
     6
 78
     2
 67
     7
 79
     3
170
     0
171
     0
290
     0
174
     0
 93
        1
 44
0.0
173
     0
291
     0
 45
0.0
1001
ACAD
1000
AcDbSavedByObjectVersion
1070
     0
  0
VISUALSTYLE
  5
18B
102
{ACAD_XDICTIONARY
360
CE4
102
}
102
{ACAD_REACTORS
330
180
102
}
330
180
100
AcDbVisualStyle
  2

 70
    11
 71
     2
 72
     2
 73
     0
 90
        0
 40
-0.6
 41
-30.0
 62
     5
 63
     7
 74
     1
 91
        4
 64
     7
 65
   257
 75
     1
175
     1
 42
1.0
 92
        8
 66
     7
 43
1.0
 76
     1
 77
     6
 78
     2
 67
     7
 79
     5
170
     0
171
     0
290
     0
174
     0
 93
        1
 44
-50.0
173
     0
291
     1
 45
0.0
1001
ACAD
1000
AcDbSavedByObjectVersion
1070
     0
  0
VISUALSTYLE
  5
1FE
102
{ACAD_XDICTIONARY
360
CF4
102
}
102
{ACAD_REACTORS
330
180
102
}
330
180
100
AcDbVisualStyle
  2

 70
    22
 71
     2
 72
     2
 73
     0
 90
        0
 40
-0.6
 41
-30.0
 62
     5
 63
     7
 74
     1
 91
        4
 64
     7
 65
   257
 75
     1
175
     1
 42
1.0
 92
        8
 66
     7
 43
1.0
 76
     1
 77
     6
 78
     2
 67
     7
 79
     5
170
     0
171
     0
290
     0
174
     0
 93
        1
 44
0.0
173
     0
291
     1
 45
0.0
1001
ACAD
1000
AcDbSavedByObjectVersion
1070
     0
  0
VISUALSTYLE
  5
18F
102
{ACAD_XDICTIONARY
360
CEC
102
}
102
{ACAD_REACTORS
330
180
102
}
330
180
100
AcDbVisualStyle
  2

 70
    15
 71
     2
 72
     2
 73
     0
 90
        0
 40
-0.6
 41
-30.0
 62
     5
 63
     7
 74
     1
 91
        4
 64
     7
 65
   257
 75
     1
175
     1
 42
1.0
 92
        8
 66
     7
 43
1.0
 76
     1
 77
     6
 78
     2
 67
     7
 79
     5
170
     0
171
     0
290
     0
174
     0
 93
        1
 44
0.0
173
     0
291
     1
 45
0.0
1001
ACAD
1000
AcDbSavedByObjectVersion
1070
     0
  0
VISUALSTYLE
  5
181
102
{ACAD_XDICTIONARY
360
CD0
102
}
102
{ACAD_REACTORS
330
180
102
}
330
180
100
AcDbVisualStyle
  2

 70
     0
 71
     2
 72
     1
 73
     1
 90
        2
 40
-0.6
 41
30.0
 62
     5
 63
     7
 74
     0
 91
        4
 64
     7
 65
   257
 75
     1
175
     1
 42
1.0
 92
        8
 66
     7
 43
1.0
 76
     1
 77
     6
 78
     2
 67
     7
 79
     5
170
     0
171
     0
290
     0
174
     0
 93
       13
 44
0.0
173
     0
291
     1
 45
0.0
1001
ACAD
1000
AcDbSavedByObjectVersion
1070
     0
  0
VISUALSTYLE
  5
182
102
{ACAD_XDICTIONARY
360
CD2
102
}
102
{ACAD_REACTORS
330
180
102
}
330
180
100
AcDbVisualStyle
  2

 70
     1
 71
     2
 72
     1
 73
     1
 90
        2
 40
-0.6
 41
30.0
 62
     5
 63
     7
 74
     1
 91
        4
 64
     7
 65
   257
 75
     1
175
     1
 42
1.0
 92
        0
 66
   257
 43
1.0
 76
     1
 77
     6
 78
     2
 67
     7
 79
     5
170
     0
171
     0
290
     0
174
     0
 93
       13
 44
0.0
173
     0
291
     1
 45
0.0
1001
ACAD
1000
AcDbSavedByObjectVersion
1070
     0
  0
VISUALSTYLE
  5
183
102
{ACAD_XDICTIONARY
360
CD4
102
}
102
{ACAD_REACTORS
330
180
102
}
330
180
100
AcDbVisualStyle
  2

 70
     2
 71
     2
 72
     2
 73
     1
 90
        2
 40
-0.6
 41
30.0
 62
     5
 63
     7
 74
     0
 91
        4
 64
     7
 65
   257
 75
     1
175
     1
 42
1.0
 92
        0
 66
     7
 43
1.0
 76
     1
 77
     6
 78
     2
 67
     7
 79
     5
170
     0
171
     0
290
     0
174
     0
 93
       13
 44
0.0
173
     0
291
     1
 45
0.0
1001
ACAD
1000
AcDbSavedByObjectVersion
1070
     0
  0
VISUALSTYLE
  5
184
102
{ACAD_XDICTIONARY
360
CD6
102
}
102
{ACAD_REACTORS
330
180
102
}
330
180
100
AcDbVisualStyle
  2

 70
     3
 71
     2
 72
     2
 73
     1
 90
        2
 40
-0.6
 41
30.0
 62
     5
 63
     7
 74
     1
 91
        4
 64
     7
 65
   257
 75
     1
175
     1
 42
1.0
 92
        0
 66
   257
 43
1.0
 76
     1
 77
     6
 78
     2
 67
     7
 79
     5
170
     0
171
     0
290
     0
174
     0
 93
       13
 44
0.0
173
     0
291
     1
 45
0.0
1001
ACAD
1000
AcDbSavedByObjectVersion
1070
     0
  0
VISUALSTYLE
  5
1FC
102
{ACAD_XDICTIONARY
360
CF0
102
}
102
{ACAD_REACTORS
330
180
102
}
330
180
100
AcDbVisualStyle
  2

 70
    20
 71
     2
 72
     2
 73
     0
 90
        0
 40
-0.6
 41
-30.0
 62
     5
 63
     7
 74
     1
 91
        4
 64
     7
 65
   257
 75
     1
175
     1
 42
1.0
 92
       10
 66
     7
 43
1.0
 76
     1
 77
     6
 78
     2
 67
     7
 79
     5
170
     0
171
     0
290
     0
174
     0
 93
        1
 44
0.0
173
     0
291
     1
 45
0.0
1001
ACAD
1000
AcDbSavedByObjectVersion
1070
     0
  0
VISUALSTYLE
  5
18E
102
{ACAD_XDICTIONARY
360
CEA
102
}
102
{ACAD_REACTORS
330
180
102
}
330
180
100
AcDbVisualStyle
  2

 70
    14
 71
     2
 72
     2
 73
     0
 90
        0
 40
-0.6
 41
-30.0
 62
     5
 63
     7
 74
     1
 91
        4
 64
     7
 65
   257
 75
     7
175
     7
 42
1.0
 92
        8
 66
     7
 43
1.0
 76
     1
 77
     6
 78
     2
 67
     7
 79
     5
170
     0
171
     0
290
     0
174
     0
 93
        1
 44
0.0
173
     0
291
     1
 45
0.0
1001
ACAD
1000
AcDbSavedByObjectVersion
1070
     0
  0
VISUALSTYLE
  5
1FD
102
{ACAD_XDICTIONARY
360
CF2
102
}
102
{ACAD_REACTORS
330
180
102
}
330
180
100
AcDbVisualStyle
  2

 70
    21
 71
     2
 72
     2
 73
     0
 90
        0
 40
-0.6
 41
-30.0
 62
     5
 63
     7
 74
     1
 91
        4
 64
     7
 65
   257
 75
     1
175
     1
 42
1.0
 92
        9
 66
     7
 43
1.0
 76
     1
 77
     6
 78
     2
 67
     7
 79
     5
170
     0
171
     0
290
     0
174
     0
 93
        1
 44
0.0
173
     0
291
     1
 45
0.0
1001
ACAD
1000
AcDbSavedByObjectVersion
1070
     0
  0
VISUALSTYLE
  5
18A
102
{ACAD_XDICTIONARY
360
CE2
102
}
102
{ACAD_REACTORS
330
180
102
}
330
180
100
AcDbVisualStyle
  2

 70
     8
 71
     2
 72
     2
 73
     0
 90
        0
 40
-0.6
 41
-30.0
 62
     5
 63
     7
 74
     1
 91
        0
 64
     7
 65
   257
 75
     1
175
     1
 42
1.0
 92
        8
 66
     8
 43
1.0
 76
     1
 77
     6
 78
     2
 67
     7
 79
     5
170
     0
171
     0
290
     0
174
     0
 93
       13
 44
0.0
173
     0
291
     0
 45
0.0
1001
ACAD
1000
AcDbSavedByObjectVersion
1070
     0
  0
VISUALSTYLE
  5
18D
102
{ACAD_XDICTIONARY
360
CE8
102
}
102
{ACAD_REACTORS
330
180
102
}
330
180
100
AcDbVisualStyle
  2

 70
    13
 71
     2
 72
     2
 73
     0
 90
        0
 40
-0.6
 41
-30.0
 62
     5
 63
     7
 74
     1
 91
        4
 64
     7
 65
   257
 75
     1
175
     1
 42
1.0
 92
       12
 66
     7
 43
1.0
 76
     1
 77
     6
 78
     2
 67
     7
 79
     5
170
     0
171
     0
290
     0
174
     0
 93
        1
 44
0.0
173
     0
291
     1
 45
0.0
1001
ACAD
1000
AcDbSavedByObjectVersion
1070
     0
  0
DICTIONARYVAR
  5
1E5
102
{ACAD_REACTORS
330
15F
102
}
330
15F
100
DictionaryVariables
280
     0
  1
1:1
  0
DICTIONARYVAR
  5
1E3
102
{ACAD_REACTORS
330
15F
102
}
330
15F
100
DictionaryVariables
280
     0
  1
STANDARD
  0
DICTIONARYVAR
  5
160
102
{ACAD_REACTORS
330
15F
102
}
330
15F
100
DictionaryVariables
280
     0
  1
STANDARD
  0
DICTIONARYVAR
  5
B8A
102
{ACAD_REACTORS
330
15F
102
}
330
15F
100
DictionaryVariables
280
     0
  1
1
  0
DICTIONARYVAR
  5
B88
102
{ACAD_REACTORS
330
15F
102
}
330
15F
100
DictionaryVariables
280
     0
  1
0
  0
DICTIONARYVAR
  5
1E6
102
{ACAD_REACTORS
330
15F
102
}
330
15F
100
DictionaryVariables
280
     0
  1
0
  0
DICTIONARYVAR
  5
1E4
102
{ACAD_REACTORS
330
15F
102
}
330
15F
100
DictionaryVariables
280
     0
  1
0
  0
DICTIONARYVAR
  5
B87
102
{ACAD_REACTORS
330
15F
102
}
330
15F
100
DictionaryVariables
280
     0
  1
127
  0
DICTIONARYVAR
  5
CC3
102
{ACAD_REACTORS
330
15F
102
}
330
15F
100
DictionaryVariables
280
     0
  1
2
  0
DICTIONARY
  5
CC9
330
1E
100
AcDbDictionary
280
     1
281
     1
  3
ACAD_XREC_ROUNDTRIP
360
CCA
  0
DICTIONARY
  5
CCD
330
26
100
AcDbDictionary
280
     1
281
     1
  3
ACAD_XREC_ROUNDTRIP
360
CCE
  0
DICTIONARY
  5
CCB
330
22
100
AcDbDictionary
280
     1
281
     1
  3
ACAD_XREC_ROUNDTRIP
360
CCC
  0
DICTIONARY
  5
171
330
170
100
AcDbDictionary
280
     1
281
     1
  3
ACAD_XREC_ROUNDTRIP
360
B98
  3
BUMPTILE
360
173
  3
DIFFUSETILE
360
172
  3
OPACITYTILE
360
176
  3
REFLECTIONTILE
360
175
  3
REFRACTIONTILE
360
177
  3
SPECULARTILE
360
174
  0
DICTIONARY
  5
169
330
168
100
AcDbDictionary
280
     1
281
     1
  3
ACAD_XREC_ROUNDTRIP
360
B97
  3
BUMPTILE
360
16B
  3
DIFFUSETILE
360
16A
  3
OPACITYTILE
360
16E
  3
REFLECTIONTILE
360
16D
  3
REFRACTIONTILE
360
16F
  3
SPECULARTILE
360
16C
  0
DICTIONARY
  5
179
330
178
100
AcDbDictionary
280
     1
281
     1
  3
ACAD_XREC_ROUNDTRIP
360
B99
  3
BUMPTILE
360
17B
  3
DIFFUSETILE
360
17A
  3
OPACITYTILE
360
17E
  3
REFLECTIONTILE
360
17D
  3
REFRACTIONTILE
360
17F
  3
SPECULARTILE
360
17C
  0
DICTIONARY
  5
1E0
330
B7
100
AcDbDictionary
280
     1
281
     1
  3
ACAD_ROUNDTRIP_2008_TABLESTYLE_CELLSTYLEMAP
360
CC4
  3
ACAD_XREC_ROUNDTRIP
360
CCF
  0
DICTIONARY
  5
CDA
330
186
100
AcDbDictionary
280
     1
281
     1
  3
ACAD_XREC_ROUNDTRIP
360
CDB
  0
DICTIONARY
  5
CDE
330
188
100
AcDbDictionary
280
     1
281
     1
  3
ACAD_XREC_ROUNDTRIP
360
CDF
  0
DICTIONARY
  5
CDC
330
187
100
AcDbDictionary
280
     1
281
     1
  3
ACAD_XREC_ROUNDTRIP
360
CDD
  0
DICTIONARY
  5
CD8
330
185
100
AcDbDictionary
280
     1
281
     1
  3
ACAD_XREC_ROUNDTRIP
360
CD9
  0
DICTIONARY
  5
CE6
330
18C
100
AcDbDictionary
280
     1
281
     1
  3
ACAD_XREC_ROUNDTRIP
360
CE7
  0
DICTIONARY
  5
CEE
330
190
100
AcDbDictionary
280
     1
281
     1
  3
ACAD_XREC_ROUNDTRIP
360
CEF
  0
DICTIONARY
  5
CE0
330
189
100
AcDbDictionary
280
     1
281
     1
  3
ACAD_XREC_ROUNDTRIP
360
CE1
  0
DICTIONARY
  5
CE4
330
18B
100
AcDbDictionary
280
     1
281
     1
  3
ACAD_XREC_ROUNDTRIP
360
CE5
  0
DICTIONARY
  5
CF4
330
1FE
100
AcDbDictionary
280
     1
281
     1
  3
ACAD_XREC_ROUNDTRIP
360
CF5
  0
DICTIONARY
  5
CEC
330
18F
100
AcDbDictionary
280
     1
281
     1
  3
ACAD_XREC_ROUNDTRIP
360
CED
  0
DICTIONARY
  5
CD0
330
181
100
AcDbDictionary
280
     1
281
     1
  3
ACAD_XREC_ROUNDTRIP
360
CD1
  0
DICTIONARY
  5
CD2
330
182
100
AcDbDictionary
280
     1
281
     1
  3
ACAD_XREC_ROUNDTRIP
360
CD3
  0
DICTIONARY
  5
CD4
330
183
100
AcDbDictionary
280
     1
281
     1
  3
ACAD_XREC_ROUNDTRIP
360
CD5
  0
DICTIONARY
  5
CD6
330
184
100
AcDbDictionary
280
     1
281
     1
  3
ACAD_XREC_ROUNDTRIP
360
CD7
  0
DICTIONARY
  5
CF0
330
1FC
100
AcDbDictionary
280
     1
281
     1
  3
ACAD_XREC_ROUNDTRIP
360
CF1
  0
DICTIONARY
  5
CEA
330
18E
100
AcDbDictionary
280
     1
281
     1
  3
ACAD_XREC_ROUNDTRIP
360
CEB
  0
DICTIONARY
  5
CF2
330
1FD
100
AcDbDictionary
280
     1
281
     1
  3
ACAD_XREC_ROUNDTRIP
360
CF3
  0
DICTIONARY
  5
CE2
330
18A
100
AcDbDictionary
280
     1
281
     1
  3
ACAD_XREC_ROUNDTRIP
360
CE3
  0
DICTIONARY
  5
CE8
330
18D
100
AcDbDictionary
280
     1
281
     1
  3
ACAD_XREC_ROUNDTRIP
360
CE9
  0
XRECORD
  5
CCA
102
{ACAD_REACTORS
330
CC9
102
}
330
CC9
100
AcDbXrecord
280
     1
102
SHADEPLOT
 70
     0
102
SHADEPLOTRESLEVEL
 70
     2
102
SHADEPLOTCUSTOMDPI
 70
   300
  0
XRECORD
  5
CCE
102
{ACAD_REACTORS
330
CCD
102
}
330
CCD
100
AcDbXrecord
280
     1
102
SHADEPLOT
 70
     0
102
SHADEPLOTRESLEVEL
 70
     2
102
SHADEPLOTCUSTOMDPI
 70
   300
  0
XRECORD
  5
CCC
102
{ACAD_REACTORS
330
CCB
102
}
330
CCB
100
AcDbXrecord
280
     1
102
SHADEPLOT
 70
     0
102
SHADEPLOTRESLEVEL
 70
     2
102
SHADEPLOTCUSTOMDPI
 70
   300
  0
XRECORD
  5
B98
102
{ACAD_REACTORS
330
171
102
}
330
171
100
AcDbXrecord
280
     1
102
MATERIAL
148
0.0
149
0.0
149
0.0
 93
        0
 94
      127
282
     0
 72
     0
 77
     0
171
     0
175
     0
179
     0
273
     0
  0
XRECORD
  5
173
102
{ACAD_REACTORS
330
171
102
}
330
171
100
AcDbXrecord
280
     1
270
     1
271
     1
  0
XRECORD
  5
172
102
{ACAD_REACTORS
330
171
102
}
330
171
100
AcDbXrecord
280
     1
270
     1
271
     1
  0
XRECORD
  5
176
102
{ACAD_REACTORS
330
171
102
}
330
171
100
AcDbXrecord
280
     1
270
     1
271
     1
  0
XRECORD
  5
175
102
{ACAD_REACTORS
330
171
102
}
330
171
100
AcDbXrecord
280
     1
270
     1
271
     1
  0
XRECORD
  5
177
102
{ACAD_REACTORS
330
171
102
}
330
171
100
AcDbXrecord
280
     1
270
     1
271
     1
  0
XRECORD
  5
174
102
{ACAD_REACTORS
330
171
102
}
330
171
100
AcDbXrecord
280
     1
270
     1
271
     1
  0
XRECORD
  5
B97
102
{ACAD_REACTORS
330
169
102
}
330
169
100
AcDbXrecord
280
     1
102
MATERIAL
148
0.0
149
0.0
149
0.0
 93
        0
 94
      127
282
     0
 72
     0
 77
     0
171
     0
175
     0
179
     0
273
     0
  0
XRECORD
  5
16B
102
{ACAD_REACTORS
330
169
102
}
330
169
100
AcDbXrecord
280
     1
270
     1
271
     1
  0
XRECORD
  5
16A
102
{ACAD_REACTORS
330
169
102
}
330
169
100
AcDbXrecord
280
     1
270
     1
271
     1
  0
XRECORD
  5
16E
102
{ACAD_REACTORS
330
169
102
}
330
169
100
AcDbXrecord
280
     1
270
     1
271
     1
  0
XRECORD
  5
16D
102
{ACAD_REACTORS
330
169
102
}
330
169
100
AcDbXrecord
280
     1
270
     1
271
     1
  0
XRECORD
  5
16F
102
{ACAD_REACTORS
330
169
102
}
330
169
100
AcDbXrecord
280
     1
270
     1
271
     1
  0
XRECORD
  5
16C
102
{ACAD_REACTORS
330
169
102
}
330
169
100
AcDbXrecord
280
     1
270
     1
271
     1
  0
XRECORD
  5
B99
102
{ACAD_REACTORS
330
179
102
}
330
179
100
AcDbXrecord
280
     1
102
MATERIAL
148
0.0
149
0.0
149
0.0
 93
        0
 94
      127
282
     0
 72
     0
 77
     0
171
     0
175
     0
179
     0
273
     0
  0
XRECORD
  5
17B
102
{ACAD_REACTORS
330
179
102
}
330
179
100
AcDbXrecord
280
     1
270
     1
271
     1
  0
XRECORD
  5
17A
102
{ACAD_REACTORS
330
179
102
}
330
179
100
AcDbXrecord
280
     1
270
     1
271
     1
  0
XRECORD
  5
17E
102
{ACAD_REACTORS
330
179
102
}
330
179
100
AcDbXrecord
280
     1
270
     1
271
     1
  0
XRECORD
  5
17D
102
{ACAD_REACTORS
330
179
102
}
330
179
100
AcDbXrecord
280
     1
270
     1
271
     1
  0
XRECORD
  5
17F
102
{ACAD_REACTORS
330
179
102
}
330
179
100
AcDbXrecord
280
     1
270
     1
271
     1
  0
XRECORD
  5
17C
102
{ACAD_REACTORS
330
179
102
}
330
179
100
AcDbXrecord
280
     1
270
     1
271
     1
  0
CELLSTYLEMAP
  5
CC4
102
{ACAD_REACTORS
330
1E0
102
}
330
1E0
100
AcDbCellStyleMap
 90
        3
300
CELLSTYLE
  1
TABLEFORMAT_BEGIN
 90
        5
170
     1
 91
        0
 92
    32768
 62
   257
 93
        1
300
CONTENTFORMAT
  1
CONTENTFORMAT_BEGIN
 90
        0
 91
        0
 92
        4
 93
        0
300

 40
0.0
140
1.0
 94
        5
 62
     0
340
11
144
0.25
309
CONTENTFORMAT_END
171
     1
301
MARGIN
  1
CELLMARGIN_BEGIN
 40
0.06
 40
0.06
 40
0.06
 40
0.06
 40
0.18
 40
0.18
309
CELLMARGIN_END
 94
        6
 95
        1
302
GRIDFORMAT
  1
GRIDFORMAT_BEGIN
 90
        0
 91
        1
 62
     0
 92
       -2
340
0
 93
        0
 40
0.045
309
GRIDFORMAT_END
 95
        2
302
GRIDFORMAT
  1
GRIDFORMAT_BEGIN
 90
        0
 91
        1
 62
     0
 92
       -2
340
0
 93
        0
 40
0.045
309
GRIDFORMAT_END
 95
        4
302
GRIDFORMAT
  1
GRIDFORMAT_BEGIN
 90
        0
 91
        1
 62
     0
 92
       -2
340
0
 93
        0
 40
0.045
309
GRIDFORMAT_END
 95
        8
302
GRIDFORMAT
  1
GRIDFORMAT_BEGIN
 90
        0
 91
        1
 62
     0
 92
       -2
340
0
 93
        0
 40
0.045
309
GRIDFORMAT_END
 95
       16
302
GRIDFORMAT
  1
GRIDFORMAT_BEGIN
 90
        0
 91
        1
 62
     0
 92
       -2
340
0
 93
        0
 40
0.045
309
GRIDFORMAT_END
 95
       32
302
GRIDFORMAT
  1
GRIDFORMAT_BEGIN
 90
        0
 91
        1
 62
     0
 92
       -2
340
0
 93
        0
 40
0.045
309
GRIDFORMAT_END
309
TABLEFORMAT_END
  1
CELLSTYLE_BEGIN
 90
        1
 91
        1
300
_TITLE
309
CELLSTYLE_END
300
CELLSTYLE
  1
TABLEFORMAT_BEGIN
 90
        5
170
     1
 91
        0
 92
        0
 62
   257
 93
        1
300
CONTENTFORMAT
  1
CONTENTFORMAT_BEGIN
 90
        0
 91
        0
 92
        4
 93
        0
300

 40
0.0
140
1.0
 94
        5
 62
     0
340
11
144
0.18
309
CONTENTFORMAT_END
171
     1
301
MARGIN
  1
CELLMARGIN_BEGIN
 40
0.06
 40
0.06
 40
0.06
 40
0.06
 40
0.18
 40
0.18
309
CELLMARGIN_END
 94
        6
 95
        1
302
GRIDFORMAT
  1
GRIDFORMAT_BEGIN
 90
        0
 91
        1
 62
     0
 92
       -2
340
0
 93
        0
 40
0.045
309
GRIDFORMAT_END
 95
        2
302
GRIDFORMAT
  1
GRIDFORMAT_BEGIN
 90
        0
 91
        1
 62
     0
 92
       -2
340
0
 93
        0
 40
0.045
309
GRIDFORMAT_END
 95
        4
302
GRIDFORMAT
  1
GRIDFORMAT_BEGIN
 90
        0
 91
        1
 62
     0
 92
       -2
340
0
 93
        0
 40
0.045
309
GRIDFORMAT_END
 95
        8
302
GRIDFORMAT
  1
GRIDFORMAT_BEGIN
 90
        0
 91
        1
 62
     0
 92
       -2
340
0
 93
        0
 40
0.045
309
GRIDFORMAT_END
 95
       16
302
GRIDFORMAT
  1
GRIDFORMAT_BEGIN
 90
        0
 91
        1
 62
     0
 92
       -2
340
0
 93
        0
 40
0.045
309
GRIDFORMAT_END
 95
       32
302
GRIDFORMAT
  1
GRIDFORMAT_BEGIN
 90
        0
 91
        1
 62
     0
 92
       -2
340
0
 93
        0
 40
0.045
309
GRIDFORMAT_END
309
TABLEFORMAT_END
  1
CELLSTYLE_BEGIN
 90
        2
 91
        1
300
_HEADER
309
CELLSTYLE_END
300
CELLSTYLE
  1
TABLEFORMAT_BEGIN
 90
        5
170
     1
 91
        0
 92
        0
 62
   257
 93
        1
300
CONTENTFORMAT
  1
CONTENTFORMAT_BEGIN
 90
        0
 91
        0
 92
        4
 93
        0
300

 40
0.0
140
1.0
 94
        2
 62
     0
340
11
144
0.18
309
CONTENTFORMAT_END
171
     1
301
MARGIN
  1
CELLMARGIN_BEGIN
 40
0.06
 40
0.06
 40
0.06
 40
0.06
 40
0.18
 40
0.18
309
CELLMARGIN_END
 94
        6
 95
        1
302
GRIDFORMAT
  1
GRIDFORMAT_BEGIN
 90
        0
 91
        1
 62
     0
 92
       -2
340
0
 93
        0
 40
0.045
309
GRIDFORMAT_END
 95
        2
302
GRIDFORMAT
  1
GRIDFORMAT_BEGIN
 90
        0
 91
        1
 62
     0
 92
       -2
340
0
 93
        0
 40
0.045
309
GRIDFORMAT_END
 95
        4
302
GRIDFORMAT
  1
GRIDFORMAT_BEGIN
 90
        0
 91
        1
 62
     0
 92
       -2
340
0
 93
        0
 40
0.045
309
GRIDFORMAT_END
 95
        8
302
GRIDFORMAT
  1
GRIDFORMAT_BEGIN
 90
        0
 91
        1
 62
     0
 92
       -2
340
0
 93
        0
 40
0.045
309
GRIDFORMAT_END
 95
       16
302
GRIDFORMAT
  1
GRIDFORMAT_BEGIN
 90
        0
 91
        1
 62
     0
 92
       -2
340
0
 93
        0
 40
0.045
309
GRIDFORMAT_END
 95
       32
302
GRIDFORMAT
  1
GRIDFORMAT_BEGIN
 90
        0
 91
        1
 62
     0
 92
       -2
340
0
 93
        0
 40
0.045
309
GRIDFORMAT_END
309
TABLEFORMAT_END
  1
CELLSTYLE_BEGIN
 90
        3
 91
        2
300
_DATA
309
CELLSTYLE_END
  0
XRECORD
  5
CCF
102
{ACAD_REACTORS
330
1E0
102
}
330
1E0
100
AcDbXrecord
280
     1
102
ACAD_ROUNDTRIP_PRE2007_TABLESTYLE
 90
        4
 91
        0
  1

 92
        4
 93
        0
  2

 94
        4
 95
        0
  3

  0
XRECORD
  5
CDB
102
{ACAD_REACTORS
330
CDA
102
}
330
CDA
100
AcDbXrecord
280
     1
102
RTVSPropertyOp0
 70
     1
102
RTVSPropertyOp1
 70
     1
102
RTVSPropertyOp2
 70
     1
102
RTVSPropertyOp3
 70
     1
102
RTVSPropertyOp4
 70
     1
102
RTVSPropertyOp5
 70
     1
102
RTVSPropertyOp6
 70
     1
102
RTVSPropertyOp7
 70
     1
102
RTVSPropertyOp8
 70
     1
102
RTVSPropertyOp9
 70
     1
102
RTVSPropertyOp10
 70
     1
102
RTVSPropertyOp11
 70
     1
102
RTVSPropertyOp12
 70
     1
102
RTVSPropertyOp13
 70
     1
102
RTVSPropertyOp14
 70
     1
102
RTVSPropertyOp15
 70
     1
102
RTVSPropertyOp16
 70
     1
102
RTVSPropertyOp17
 70
     1
102
RTVSPropertyOp18
 70
     1
102
RTVSPropertyOp19
 70
     1
102
RTVSPropertyOp20
 70
     1
102
RTVSPropertyOp21
 70
     1
102
RTVSPropertyOp22
 70
     1
102
RTVSPropertyOp23
 70
     1
102
RTVSPropertyOp24
 70
     1
102
RTVSPropertyOp25
 70
     1
102
RTVSPropertyOp26
 70
     1
102
RTVSPropertyOp27
 70
     1
  0
XRECORD
  5
CDF
102
{ACAD_REACTORS
330
CDE
102
}
330
CDE
100
AcDbXrecord
280
     1
102
RTVSPropertyOp0
 70
     1
102
RTVSPropertyOp1
 70
     1
102
RTVSPropertyOp2
 70
     1
102
RTVSPropertyOp3
 70
     1
102
RTVSPropertyOp4
 70
     1
102
RTVSPropertyOp5
 70
     1
102
RTVSPropertyOp6
 70
     1
102
RTVSPropertyOp7
 70
     1
102
RTVSPropertyOp8
 70
     1
102
RTVSPropertyOp9
 70
     1
102
RTVSPropertyOp10
 70
     1
102
RTVSPropertyOp11
 70
     1
102
RTVSPropertyOp12
 70
     1
102
RTVSPropertyOp13
 70
     1
102
RTVSPropertyOp14
 70
     1
102
RTVSPropertyOp15
 70
     1
102
RTVSPropertyOp16
 70
     1
102
RTVSPropertyOp17
 70
     1
102
RTVSPropertyOp18
 70
     1
102
RTVSPropertyOp19
 70
     1
102
RTVSPropertyOp20
 70
     1
102
RTVSPropertyOp21
 70
     1
102
RTVSPropertyOp22
 70
     1
102
RTVSPropertyOp23
 70
     1
102
RTVSPropertyOp24
 70
     1
102
RTVSPropertyOp25
 70
     1
102
RTVSPropertyOp26
 70
     1
102
RTVSPropertyOp27
 70
     1
  0
XRECORD
  5
CDD
102
{ACAD_REACTORS
330
CDC
102
}
330
CDC
100
AcDbXrecord
280
     1
102
RTVSPropertyOp0
 70
     1
102
RTVSPropertyOp1
 70
     1
102
RTVSPropertyOp2
 70
     1
102
RTVSPropertyOp3
 70
     1
102
RTVSPropertyOp4
 70
     1
102
RTVSPropertyOp5
 70
     1
102
RTVSPropertyOp6
 70
     1
102
RTVSPropertyOp7
 70
     1
102
RTVSPropertyOp8
 70
     1
102
RTVSPropertyOp9
 70
     1
102
RTVSPropertyOp10
 70
     1
102
RTVSPropertyOp11
 70
     1
102
RTVSPropertyOp12
 70
     1
102
RTVSPropertyOp13
 70
     1
102
RTVSPropertyOp14
 70
     1
102
RTVSPropertyOp15
 70
     1
102
RTVSPropertyOp16
 70
     1
102
RTVSPropertyOp17
 70
     1
102
RTVSPropertyOp18
 70
     1
102
RTVSPropertyOp19
 70
     1
102
RTVSPropertyOp20
 70
     1
102
RTVSPropertyOp21
 70
     1
102
RTVSPropertyOp22
 70
     1
102
RTVSPropertyOp23
 70
     1
102
RTVSPropertyOp24
 70
     1
102
RTVSPropertyOp25
 70
     1
102
RTVSPropertyOp26
 70
     1
102
RTVSPropertyOp27
 70
     1
  0
XRECORD
  5
CD9
102
{ACAD_REACTORS
330
CD8
102
}
330
CD8
100
AcDbXrecord
280
     1
102
RTVSPropertyOp0
 70
     1
102
RTVSPropertyOp1
 70
     1
102
RTVSPropertyOp2
 70
     1
102
RTVSPropertyOp3
 70
     1
102
RTVSPropertyOp4
 70
     1
102
RTVSPropertyOp5
 70
     1
102
RTVSPropertyOp6
 70
     1
102
RTVSPropertyOp7
 70
     1
102
RTVSPropertyOp8
 70
     1
102
RTVSPropertyOp9
 70
     1
102
RTVSPropertyOp10
 70
     1
102
RTVSPropertyOp11
 70
     1
102
RTVSPropertyOp12
 70
     1
102
RTVSPropertyOp13
 70
     1
102
RTVSPropertyOp14
 70
     1
102
RTVSPropertyOp15
 70
     1
102
RTVSPropertyOp16
 70
     1
102
RTVSPropertyOp17
 70
     1
102
RTVSPropertyOp18
 70
     1
102
RTVSPropertyOp19
 70
     1
102
RTVSPropertyOp20
 70
     1
102
RTVSPropertyOp21
 70
     1
102
RTVSPropertyOp22
 70
     1
102
RTVSPropertyOp23
 70
     1
102
RTVSPropertyOp24
 70
     1
102
RTVSPropertyOp25
 70
     1
102
RTVSPropertyOp26
 70
     1
102
RTVSPropertyOp27
 70
     1
  0
XRECORD
  5
CE7
102
{ACAD_REACTORS
330
CE6
102
}
330
CE6
100
AcDbXrecord
280
     1
102
RTVSPropertyOp0
 70
     1
102
RTVSPropertyOp1
 70
     1
102
RTVSPropertyOp2
 70
     1
102
RTVSPropertyOp3
 70
     1
102
RTVSPropertyOp4
 70
     1
102
RTVSPropertyOp5
 70
     1
102
RTVSPropertyOp6
 70
     1
102
RTVSPropertyOp7
 70
     1
102
RTVSPropertyOp8
 70
     1
102
RTVSPropertyOp9
 70
     1
102
RTVSPropertyOp10
 70
     1
102
RTVSPropertyOp11
 70
     1
102
RTVSPropertyOp12
 70
     1
102
RTVSPropertyOp13
 70
     1
102
RTVSPropertyOp14
 70
     1
102
RTVSPropertyOp15
 70
     1
102
RTVSPropertyOp16
 70
     1
102
RTVSPropertyOp17
 70
     1
102
RTVSPropertyOp18
 70
     1
102
RTVSPropertyOp19
 70
     1
102
RTVSPropertyOp20
 70
     1
102
RTVSPropertyOp21
 70
     1
102
RTVSPropertyOp22
 70
     1
102
RTVSPropertyOp23
 70
     1
102
RTVSPropertyOp24
 70
     1
102
RTVSPropertyOp25
 70
     1
102
RTVSPropertyOp26
 70
     1
102
RTVSPropertyOp27
 70
     1
  0
XRECORD
  5
CEF
102
{ACAD_REACTORS
330
CEE
102
}
330
CEE
100
AcDbXrecord
280
     1
102
RTVSPropertyOp0
 70
     1
102
RTVSPropertyOp1
 70
     1
102
RTVSPropertyOp2
 70
     1
102
RTVSPropertyOp3
 70
     1
102
RTVSPropertyOp4
 70
     1
102
RTVSPropertyOp5
 70
     1
102
RTVSPropertyOp6
 70
     1
102
RTVSPropertyOp7
 70
     1
102
RTVSPropertyOp8
 70
     1
102
RTVSPropertyOp9
 70
     1
102
RTVSPropertyOp10
 70
     1
102
RTVSPropertyOp11
 70
     1
102
RTVSPropertyOp12
 70
     1
102
RTVSPropertyOp13
 70
     1
102
RTVSPropertyOp14
 70
     1
102
RTVSPropertyOp15
 70
     1
102
RTVSPropertyOp16
 70
     1
102
RTVSPropertyOp17
 70
     1
102
RTVSPropertyOp18
 70
     1
102
RTVSPropertyOp19
 70
     1
102
RTVSPropertyOp20
 70
     1
102
RTVSPropertyOp21
 70
     1
102
RTVSPropertyOp22
 70
     1
102
RTVSPropertyOp23
 70
     1
102
RTVSPropertyOp24
 70
     1
102
RTVSPropertyOp25
 70
     1
102
RTVSPropertyOp26
 70
     1
102
RTVSPropertyOp27
 70
     1
  0
XRECORD
  5
CE1
102
{ACAD_REACTORS
330
CE0
102
}
330
CE0
100
AcDbXrecord
280
     1
102
RTVSPropertyOp0
 70
     1
102
RTVSPropertyOp1
 70
     1
102
RTVSPropertyOp2
 70
     1
102
RTVSPropertyOp3
 70
     1
102
RTVSPropertyOp4
 70
     1
102
RTVSPropertyOp5
 70
     1
102
RTVSPropertyOp6
 70
     1
102
RTVSPropertyOp7
 70
     1
102
RTVSPropertyOp8
 70
     1
102
RTVSPropertyOp9
 70
     1
102
RTVSPropertyOp10
 70
     1
102
RTVSPropertyOp11
 70
     1
102
RTVSPropertyOp12
 70
     1
102
RTVSPropertyOp13
 70
     1
102
RTVSPropertyOp14
 70
     1
102
RTVSPropertyOp15
 70
     1
102
RTVSPropertyOp16
 70
     1
102
RTVSPropertyOp17
 70
     1
102
RTVSPropertyOp18
 70
     1
102
RTVSPropertyOp19
 70
     1
102
RTVSPropertyOp20
 70
     1
102
RTVSPropertyOp21
 70
     1
102
RTVSPropertyOp22
 70
     1
102
RTVSPropertyOp23
 70
     1
102
RTVSPropertyOp24
 70
     1
102
RTVSPropertyOp25
 70
     1
102
RTVSPropertyOp26
 70
     1
102
RTVSPropertyOp27
 70
     1
  0
XRECORD
  5
CE5
102
{ACAD_REACTORS
330
CE4
102
}
330
CE4
100
AcDbXrecord
280
     1
102
RTVSPropertyOp0
 70
     1
102
RTVSPropertyOp1
 70
     1
102
RTVSPropertyOp2
 70
     1
102
RTVSPropertyOp3
 70
     1
102
RTVSPropertyOp4
 70
     1
102
RTVSPropertyOp5
 70
     1
102
RTVSPropertyOp6
 70
     1
102
RTVSPropertyOp7
 70
     1
102
RTVSPropertyOp8
 70
     1
102
RTVSPropertyOp9
 70
     1
102
RTVSPropertyOp10
 70
     1
102
RTVSPropertyOp11
 70
     1
102
RTVSPropertyOp12
 70
     1
102
RTVSPropertyOp13
 70
     1
102
RTVSPropertyOp14
 70
     1
102
RTVSPropertyOp15
 70
     1
102
RTVSPropertyOp16
 70
     1
102
RTVSPropertyOp17
 70
     1
102
RTVSPropertyOp18
 70
     1
102
RTVSPropertyOp19
 70
     1
102
RTVSPropertyOp20
 70
     1
102
RTVSPropertyOp21
 70
     1
102
RTVSPropertyOp22
 70
     1
102
RTVSPropertyOp23
 70
     1
102
RTVSPropertyOp24
 70
     1
102
RTVSPropertyOp25
 70
     1
102
RTVSPropertyOp26
 70
     1
102
RTVSPropertyOp27
 70
     1
  0
XRECORD
  5
CF5
102
{ACAD_REACTORS
330
CF4
102
}
330
CF4
100
AcDbXrecord
280
     1
102
RTVSPropertyOp0
 70
     0
102
RTVSPropertyOp1
 70
     0
102
RTVSPropertyOp2
 70
     0
102
RTVSPropertyOp3
 70
     0
102
RTVSPropertyOp4
 70
     0
102
RTVSPropertyOp5
 70
     0
102
RTVSPropertyOp6
 70
     0
102
RTVSPropertyOp7
 70
     0
102
RTVSPropertyOp8
 70
     0
102
RTVSPropertyOp9
 70
     0
102
RTVSPropertyOp10
 70
     0
102
RTVSPropertyOp11
 70
     0
102
RTVSPropertyOp12
 70
     0
102
RTVSPropertyOp13
 70
     0
102
RTVSPropertyOp14
 70
     2
102
RTVSPropertyOp15
 70
     0
102
RTVSPropertyOp16
 70
     0
102
RTVSPropertyOp17
 70
     0
102
RTVSPropertyOp18
 70
     0
102
RTVSPropertyOp19
 70
     0
102
RTVSPropertyOp20
 70
     0
102
RTVSPropertyOp21
 70
     0
102
RTVSPropertyOp22
 70
     0
102
RTVSPropertyOp23
 70
     0
102
RTVSPropertyOp24
 70
     0
102
RTVSPropertyOp25
 70
     0
102
RTVSPropertyOp26
 70
     0
102
RTVSPropertyOp27
 70
     0
  0
XRECORD
  5
CED
102
{ACAD_REACTORS
330
CEC
102
}
330
CEC
100
AcDbXrecord
280
     1
102
RTVSPropertyOp0
 70
     1
102
RTVSPropertyOp1
 70
     1
102
RTVSPropertyOp2
 70
     1
102
RTVSPropertyOp3
 70
     1
102
RTVSPropertyOp4
 70
     1
102
RTVSPropertyOp5
 70
     1
102
RTVSPropertyOp6
 70
     1
102
RTVSPropertyOp7
 70
     1
102
RTVSPropertyOp8
 70
     1
102
RTVSPropertyOp9
 70
     1
102
RTVSPropertyOp10
 70
     1
102
RTVSPropertyOp11
 70
     1
102
RTVSPropertyOp12
 70
     1
102
RTVSPropertyOp13
 70
     1
102
RTVSPropertyOp14
 70
     1
102
RTVSPropertyOp15
 70
     1
102
RTVSPropertyOp16
 70
     1
102
RTVSPropertyOp17
 70
     1
102
RTVSPropertyOp18
 70
     1
102
RTVSPropertyOp19
 70
     1
102
RTVSPropertyOp20
 70
     1
102
RTVSPropertyOp21
 70
     1
102
RTVSPropertyOp22
 70
     1
102
RTVSPropertyOp23
 70
     1
102
RTVSPropertyOp24
 70
     1
102
RTVSPropertyOp25
 70
     1
102
RTVSPropertyOp26
 70
     1
102
RTVSPropertyOp27
 70
     1
  0
XRECORD
  5
CD1
102
{ACAD_REACTORS
330
CD0
102
}
330
CD0
100
AcDbXrecord
280
     1
102
RTVSPropertyOp0
 70
     1
102
RTVSPropertyOp1
 70
     1
102
RTVSPropertyOp2
 70
     1
102
RTVSPropertyOp3
 70
     1
102
RTVSPropertyOp4
 70
     1
102
RTVSPropertyOp5
 70
     1
102
RTVSPropertyOp6
 70
     1
102
RTVSPropertyOp7
 70
     1
102
RTVSPropertyOp8
 70
     1
102
RTVSPropertyOp9
 70
     1
102
RTVSPropertyOp10
 70
     1
102
RTVSPropertyOp11
 70
     1
102
RTVSPropertyOp12
 70
     1
102
RTVSPropertyOp13
 70
     1
102
RTVSPropertyOp14
 70
     1
102
RTVSPropertyOp15
 70
     1
102
RTVSPropertyOp16
 70
     1
102
RTVSPropertyOp17
 70
     1
102
RTVSPropertyOp18
 70
     1
102
RTVSPropertyOp19
 70
     1
102
RTVSPropertyOp20
 70
     1
102
RTVSPropertyOp21
 70
     1
102
RTVSPropertyOp22
 70
     1
102
RTVSPropertyOp23
 70
     1
102
RTVSPropertyOp24
 70
     1
102
RTVSPropertyOp25
 70
     1
102
RTVSPropertyOp26
 70
     1
102
RTVSPropertyOp27
 70
     1
  0
XRECORD
  5
CD3
102
{ACAD_REACTORS
330
CD2
102
}
330
CD2
100
AcDbXrecord
280
     1
102
RTVSPropertyOp0
 70
     1
102
RTVSPropertyOp1
 70
     1
102
RTVSPropertyOp2
 70
     1
102
RTVSPropertyOp3
 70
     1
102
RTVSPropertyOp4
 70
     1
102
RTVSPropertyOp5
 70
     1
102
RTVSPropertyOp6
 70
     1
102
RTVSPropertyOp7
 70
     1
102
RTVSPropertyOp8
 70
     1
102
RTVSPropertyOp9
 70
     1
102
RTVSPropertyOp10
 70
     1
102
RTVSPropertyOp11
 70
     1
102
RTVSPropertyOp12
 70
     1
102
RTVSPropertyOp13
 70
     1
102
RTVSPropertyOp14
 70
     1
102
RTVSPropertyOp15
 70
     1
102
RTVSPropertyOp16
 70
     1
102
RTVSPropertyOp17
 70
     1
102
RTVSPropertyOp18
 70
     1
102
RTVSPropertyOp19
 70
     1
102
RTVSPropertyOp20
 70
     1
102
RTVSPropertyOp21
 70
     1
102
RTVSPropertyOp22
 70
     1
102
RTVSPropertyOp23
 70
     1
102
RTVSPropertyOp24
 70
     1
102
RTVSPropertyOp25
 70
     1
102
RTVSPropertyOp26
 70
     1
102
RTVSPropertyOp27
 70
     1
  0
XRECORD
  5
CD5
102
{ACAD_REACTORS
330
CD4
102
}
330
CD4
100
AcDbXrecord
280
     1
102
RTVSPropertyOp0
 70
     1
102
RTVSPropertyOp1
 70
     1
102
RTVSPropertyOp2
 70
     1
102
RTVSPropertyOp3
 70
     1
102
RTVSPropertyOp4
 70
     1
102
RTVSPropertyOp5
 70
     1
102
RTVSPropertyOp6
 70
     1
102
RTVSPropertyOp7
 70
     1
102
RTVSPropertyOp8
 70
     1
102
RTVSPropertyOp9
 70
     1
102
RTVSPropertyOp10
 70
     1
102
RTVSPropertyOp11
 70
     1
102
RTVSPropertyOp12
 70
     1
102
RTVSPropertyOp13
 70
     1
102
RTVSPropertyOp14
 70
     1
102
RTVSPropertyOp15
 70
     1
102
RTVSPropertyOp16
 70
     1
102
RTVSPropertyOp17
 70
     1
102
RTVSPropertyOp18
 70
     1
102
RTVSPropertyOp19
 70
     1
102
RTVSPropertyOp20
 70
     1
102
RTVSPropertyOp21
 70
     1
102
RTVSPropertyOp22
 70
     1
102
RTVSPropertyOp23
 70
     1
102
RTVSPropertyOp24
 70
     1
102
RTVSPropertyOp25
 70
     1
102
RTVSPropertyOp26
 70
     1
102
RTVSPropertyOp27
 70
     1
  0
XRECORD
  5
CD7
102
{ACAD_REACTORS
330
CD6
102
}
330
CD6
100
AcDbXrecord
280
     1
102
RTVSPropertyOp0
 70
     1
102
RTVSPropertyOp1
 70
     1
102
RTVSPropertyOp2
 70
     1
102
RTVSPropertyOp3
 70
     1
102
RTVSPropertyOp4
 70
     1
102
RTVSPropertyOp5
 70
     1
102
RTVSPropertyOp6
 70
     1
102
RTVSPropertyOp7
 70
     1
102
RTVSPropertyOp8
 70
     1
102
RTVSPropertyOp9
 70
     1
102
RTVSPropertyOp10
 70
     1
102
RTVSPropertyOp11
 70
     1
102
RTVSPropertyOp12
 70
     1
102
RTVSPropertyOp13
 70
     1
102
RTVSPropertyOp14
 70
     1
102
RTVSPropertyOp15
 70
     1
102
RTVSPropertyOp16
 70
     1
102
RTVSPropertyOp17
 70
     1
102
RTVSPropertyOp18
 70
     1
102
RTVSPropertyOp19
 70
     1
102
RTVSPropertyOp20
 70
     1
102
RTVSPropertyOp21
 70
     1
102
RTVSPropertyOp22
 70
     1
102
RTVSPropertyOp23
 70
     1
102
RTVSPropertyOp24
 70
     1
102
RTVSPropertyOp25
 70
     1
102
RTVSPropertyOp26
 70
     1
102
RTVSPropertyOp27
 70
     1
  0
XRECORD
  5
CF1
102
{ACAD_REACTORS
330
CF0
102
}
330
CF0
100
AcDbXrecord
280
     1
102
RTVSPropertyOp0
 70
     0
102
RTVSPropertyOp1
 70
     0
102
RTVSPropertyOp2
 70
     0
102
RTVSPropertyOp3
 70
     0
102
RTVSPropertyOp4
 70
     0
102
RTVSPropertyOp5
 70
     0
102
RTVSPropertyOp6
 70
     0
102
RTVSPropertyOp7
 70
     0
102
RTVSPropertyOp8
 70
     0
102
RTVSPropertyOp9
 70
     0
102
RTVSPropertyOp10
 70
     0
102
RTVSPropertyOp11
 70
     0
102
RTVSPropertyOp12
 70
     0
102
RTVSPropertyOp13
 70
     0
102
RTVSPropertyOp14
 70
     2
102
RTVSPropertyOp15
 70
     0
102
RTVSPropertyOp16
 70
     0
102
RTVSPropertyOp17
 70
     0
102
RTVSPropertyOp18
 70
     0
102
RTVSPropertyOp19
 70
     0
102
RTVSPropertyOp20
 70
     0
102
RTVSPropertyOp21
 70
     0
102
RTVSPropertyOp22
 70
     0
102
RTVSPropertyOp23
 70
     0
102
RTVSPropertyOp24
 70
     0
102
RTVSPropertyOp25
 70
     0
102
RTVSPropertyOp26
 70
     0
102
RTVSPropertyOp27
 70
     0
  0
XRECORD
  5
CEB
102
{ACAD_REACTORS
330
CEA
102
}
330
CEA
100
AcDbXrecord
280
     1
102
RTVSPropertyOp0
 70
     1
102
RTVSPropertyOp1
 70
     1
102
RTVSPropertyOp2
 70
     1
102
RTVSPropertyOp3
 70
     1
102
RTVSPropertyOp4
 70
     1
102
RTVSPropertyOp5
 70
     1
102
RTVSPropertyOp6
 70
     1
102
RTVSPropertyOp7
 70
     1
102
RTVSPropertyOp8
 70
     1
102
RTVSPropertyOp9
 70
     1
102
RTVSPropertyOp10
 70
     1
102
RTVSPropertyOp11
 70
     1
102
RTVSPropertyOp12
 70
     1
102
RTVSPropertyOp13
 70
     1
102
RTVSPropertyOp14
 70
     1
102
RTVSPropertyOp15
 70
     1
102
RTVSPropertyOp16
 70
     1
102
RTVSPropertyOp17
 70
     1
102
RTVSPropertyOp18
 70
     1
102
RTVSPropertyOp19
 70
     1
102
RTVSPropertyOp20
 70
     1
102
RTVSPropertyOp21
 70
     1
102
RTVSPropertyOp22
 70
     1
102
RTVSPropertyOp23
 70
     1
102
RTVSPropertyOp24
 70
     1
102
RTVSPropertyOp25
 70
     1
102
RTVSPropertyOp26
 70
     1
102
RTVSPropertyOp27
 70
     1
  0
XRECORD
  5
CF3
102
{ACAD_REACTORS
330
CF2
102
}
330
CF2
100
AcDbXrecord
280
     1
102
RTVSPropertyOp0
 70
     0
102
RTVSPropertyOp1
 70
     0
102
RTVSPropertyOp2
 70
     0
102
RTVSPropertyOp3
 70
     0
102
RTVSPropertyOp4
 70
     0
102
RTVSPropertyOp5
 70
     0
102
RTVSPropertyOp6
 70
     0
102
RTVSPropertyOp7
 70
     0
102
RTVSPropertyOp8
 70
     0
102
RTVSPropertyOp9
 70
     0
102
RTVSPropertyOp10
 70
     0
102
RTVSPropertyOp11
 70
     0
102
RTVSPropertyOp12
 70
     0
102
RTVSPropertyOp13
 70
     0
102
RTVSPropertyOp14
 70
     2
102
RTVSPropertyOp15
 70
     0
102
RTVSPropertyOp16
 70
     0
102
RTVSPropertyOp17
 70
     0
102
RTVSPropertyOp18
 70
     0
102
RTVSPropertyOp19
 70
     0
102
RTVSPropertyOp20
 70
     0
102
RTVSPropertyOp21
 70
     0
102
RTVSPropertyOp22
 70
     0
102
RTVSPropertyOp23
 70
     0
102
RTVSPropertyOp24
 70
     0
102
RTVSPropertyOp25
 70
     0
102
RTVSPropertyOp26
 70
     0
102
RTVSPropertyOp27
 70
     0
  0
XRECORD
  5
CE3
102
{ACAD_REACTORS
330
CE2
102
}
330
CE2
100
AcDbXrecord
280
     1
102
RTVSPropertyOp0
 70
     1
102
RTVSPropertyOp1
 70
     1
102
RTVSPropertyOp2
 70
     1
102
RTVSPropertyOp3
 70
     1
102
RTVSPropertyOp4
 70
     1
102
RTVSPropertyOp5
 70
     1
102
RTVSPropertyOp6
 70
     1
102
RTVSPropertyOp7
 70
     1
102
RTVSPropertyOp8
 70
     1
102
RTVSPropertyOp9
 70
     1
102
RTVSPropertyOp10
 70
     1
102
RTVSPropertyOp11
 70
     1
102
RTVSPropertyOp12
 70
     1
102
RTVSPropertyOp13
 70
     1
102
RTVSPropertyOp14
 70
     1
102
RTVSPropertyOp15
 70
     1
102
RTVSPropertyOp16
 70
     1
102
RTVSPropertyOp17
 70
     1
102
RTVSPropertyOp18
 70
     1
102
RTVSPropertyOp19
 70
     1
102
RTVSPropertyOp20
 70
     1
102
RTVSPropertyOp21
 70
     1
102
RTVSPropertyOp22
 70
     1
102
RTVSPropertyOp23
 70
     1
102
RTVSPropertyOp24
 70
     1
102
RTVSPropertyOp25
 70
     1
102
RTVSPropertyOp26
 70
     1
102
RTVSPropertyOp27
 70
     1
  0
XRECORD
  5
CE9
102
{ACAD_REACTORS
330
CE8
102
}
330
CE8
100
AcDbXrecord
280
     1
102
RTVSPropertyOp0
 70
     1
102
RTVSPropertyOp1
 70
     1
102
RTVSPropertyOp2
 70
     1
102
RTVSPropertyOp3
 70
     1
102
RTVSPropertyOp4
 70
     1
102
RTVSPropertyOp5
 70
     1
102
RTVSPropertyOp6
 70
     1
102
RTVSPropertyOp7
 70
     1
102
RTVSPropertyOp8
 70
     1
102
RTVSPropertyOp9
 70
     1
102
RTVSPropertyOp10
 70
     1
102
RTVSPropertyOp11
 70
     1
102
RTVSPropertyOp12
 70
     1
102
RTVSPropertyOp13
 70
     1
102
RTVSPropertyOp14
 70
     1
102
RTVSPropertyOp15
 70
     1
102
RTVSPropertyOp16
 70
     1
102
RTVSPropertyOp17
 70
     1
102
RTVSPropertyOp18
 70
     1
102
RTVSPropertyOp19
 70
     1
102
RTVSPropertyOp20
 70
     1
102
RTVSPropertyOp21
 70
     1
102
RTVSPropertyOp22
 70
     1
102
RTVSPropertyOp23
 70
     1
102
RTVSPropertyOp24
 70
     1
102
RTVSPropertyOp25
 70
     1
102
RTVSPropertyOp26
 70
     1
102
RTVSPropertyOp27
 70
     1
  0
ENDSEC
  0
EOF
