  0
SECTION
  2
HEADER
  9
$ACADVER
  1
AC1024
  9
$ACADMAINTVER
 70
    38
  9
$DWGCODEPAGE
  3
ANSI_1252
  9
$LASTSAVEDBY
  1
ethan.lord
  9
$INSBASE
 10
0.0
 20
0.0
 30
0.0
  9
$EXTMIN
 10
9.835647934490911
 20
5.1535430769825
 30
0.0
  9
$EXTMAX
 10
25.1585482292694
 20
18.51478152097193
 30
0.0
  9
$LIMMIN
 10
0.0
 20
0.0
  9
$LIMMAX
 10
12.0
 20
9.0
  9
$ORTHOMODE
 70
     0
  9
$REGENMODE
 70
     1
  9
$FILLMODE
 70
     1
  9
$QTEXTMODE
 70
     0
  9
$MIRRTEXT
 70
     0
  9
$LTSCALE
 40
1.0
  9
$ATTMODE
 70
     1
  9
$TEXTSIZE
 40
0.2
  9
$TRACEWID
 40
0.05
  9
$TEXTSTYLE
  7
Standard
  9
$CLAYER
  8
0
  9
$CELTYPE
  6
ByLayer
  9
$CECOLOR
 62
   256
  9
$CELTSCALE
 40
1.0
  9
$DISPSILH
 70
     0
  9
$DIMSCALE
 40
1.0
  9
$DIMASZ
 40
0.5
  9
$DIMEXO
 40
0.25
  9
$DIMDLI
 40
0.38
  9
$DIMRND
 40
0.0625
  9
$DIMDLE
 40
0.0
  9
$DIMEXE
 40
0.25
  9
$DIMTP
 40
0.0
  9
$DIMTM
 40
0.0
  9
$DIMTXT
 40
0.7
  9
$DIMCEN
 40
0.0
  9
$DIMTSZ
 40
0.0
  9
$DIMTOL
 70
     0
  9
$DIMLIM
 70
     0
  9
$DIMTIH
 70
     1
  9
$DIMTOH
 70
     1
  9
$DIMSE1
 70
     0
  9
$DIMSE2
 70
     0
  9
$DIMTAD
 70
     0
  9
$DIMZIN
 70
     0
  9
$DIMBLK
  1

  9
$DIMASO
 70
     1
  9
$DIMSHO
 70
     1
  9
$DIMPOST
  1

  9
$DIMAPOST
  1

  9
$DIMALT
 70
     0
  9
$DIMALTD
 70
     2
  9
$DIMALTF
 40
25.4
  9
$DIMLFAC
 40
1.0
  9
$DIMTOFL
 70
     0
  9
$DIMTVP
 40
0.0
  9
$DIMTIX
 70
     0
  9
$DIMSOXD
 70
     0
  9
$DIMSAH
 70
     0
  9
$DIMBLK1
  1

  9
$DIMBLK2
  1

  9
$DIMSTYLE
  2
New OWP
  9
$DIMCLRD
 70
     0
  9
$DIMCLRE
 70
     0
  9
$DIMCLRT
 70
     0
  9
$DIMTFAC
 40
1.0
  9
$DIMGAP
 40
0.09
  9
$DIMJUST
 70
     0
  9
$DIMSD1
 70
     0
  9
$DIMSD2
 70
     0
  9
$DIMTOLJ
 70
     1
  9
$DIMTZIN
 70
     0
  9
$DIMALTZ
 70
     0
  9
$DIMALTTZ
 70
     0
  9
$DIMUPT
 70
     0
  9
$DIMDEC
 70
     4
  9
$DIMTDEC
 70
     4
  9
$DIMALTU
 70
     2
  9
$DIMALTTD
 70
     2
  9
$DIMTXSTY
  7
Standard
  9
$DIMAUNIT
 70
     0
  9
$DIMADEC
 70
     0
  9
$DIMALTRND
 40
0.0
  9
$DIMAZIN
 70
     0
  9
$DIMDSEP
 70
    46
  9
$DIMATFIT
 70
     3
  9
$DIMFRAC
 70
     1
  9
$DIMLDRBLK
  1

  9
$DIMLUNIT
 70
     5
  9
$DIMLWD
 70
    -2
  9
$DIMLWE
 70
    -2
  9
$DIMTMOVE
 70
     0
  9
$DIMFXL
 40
1.0
  9
$DIMFXLON
 70
     0
  9
$DIMJOGANG
 40
0.7853981633974483
  9
$DIMTFILL
 70
     0
  9
$DIMTFILLCLR
 70
     0
  9
$DIMARCSYM
 70
     0
  9
$DIMLTYPE
  6

  9
$DIMLTEX1
  6

  9
$DIMLTEX2
  6

  9
$DIMTXTDIRECTION
 70
     0
  9
$LUNITS
 70
     2
  9
$LUPREC
 70
     4
  9
$SKETCHINC
 40
0.1
  9
$FILLETRAD
 40
0.0
  9
$AUNITS
 70
     0
  9
$AUPREC
 70
     0
  9
$MENU
  1
.
  9
$ELEVATION
 40
0.0
  9
$PELEVATION
 40
0.0
  9
$THICKNESS
 40
0.0
  9
$LIMCHECK
 70
     0
  9
$CHAMFERA
 40
0.0
  9
$CHAMFERB
 40
0.0
  9
$CHAMFERC
 40
0.0
  9
$CHAMFERD
 40
0.0
  9
$SKPOLY
 70
     0
  9
$TDCREATE
 40
2457724.640276262
  9
$TDUCREATE
 40
2457724.806942928
  9
$TDUPDATE
 40
2457872.672970521
  9
$TDUUPDATE
 40
2457872.839637187
  9
$TDINDWG
 40
0.0249133681
  9
$TDUSRTIMER
 40
0.0249132176
  9
$USRTIMER
 70
     1
  9
$ANGBASE
 50
0.0
  9
$ANGDIR
 70
     0
  9
$PDMODE
 70
     0
  9
$PDSIZE
 40
0.0
  9
$PLINEWID
 40
0.0
  9
$SPLFRAME
 70
     0
  9
$SPLINETYPE
 70
     6
  9
$SPLINESEGS
 70
     8
  9
$HANDSEED
  5
801
  9
$SURFTAB1
 70
     6
  9
$SURFTAB2
 70
     6
  9
$SURFTYPE
 70
     6
  9
$SURFU
 70
     6
  9
$SURFV
 70
     6
  9
$UCSBASE
  2

  9
$UCSNAME
  2

  9
$UCSORG
 10
0.0
 20
0.0
 30
0.0
  9
$UCSXDIR
 10
1.0
 20
0.0
 30
0.0
  9
$UCSYDIR
 10
0.0
 20
1.0
 30
0.0
  9
$UCSORTHOREF
  2

  9
$UCSORTHOVIEW
 70
     1
  9
$UCSORGTOP
 10
0.0
 20
0.0
 30
0.0
  9
$UCSORGBOTTOM
 10
0.0
 20
0.0
 30
0.0
  9
$UCSORGLEFT
 10
0.0
 20
0.0
 30
0.0
  9
$UCSORGRIGHT
 10
0.0
 20
0.0
 30
0.0
  9
$UCSORGFRONT
 10
0.0
 20
0.0
 30
0.0
  9
$UCSORGBACK
 10
0.0
 20
0.0
 30
0.0
  9
$PUCSBASE
  2

  9
$PUCSNAME
  2

  9
$PUCSORG
 10
0.0
 20
0.0
 30
0.0
  9
$PUCSXDIR
 10
1.0
 20
0.0
 30
0.0
  9
$PUCSYDIR
 10
0.0
 20
1.0
 30
0.0
  9
$PUCSORTHOREF
  2

  9
$PUCSORTHOVIEW
 70
     0
  9
$PUCSORGTOP
 10
0.0
 20
0.0
 30
0.0
  9
$PUCSORGBOTTOM
 10
0.0
 20
0.0
 30
0.0
  9
$PUCSORGLEFT
 10
0.0
 20
0.0
 30
0.0
  9
$PUCSORGRIGHT
 10
0.0
 20
0.0
 30
0.0
  9
$PUCSORGFRONT
 10
0.0
 20
0.0
 30
0.0
  9
$PUCSORGBACK
 10
0.0
 20
0.0
 30
0.0
  9
$USERI1
 70
     0
  9
$USERI2
 70
     0
  9
$USERI3
 70
     0
  9
$USERI4
 70
     0
  9
$USERI5
 70
     0
  9
$USERR1
 40
0.0
  9
$USERR2
 40
0.0
  9
$USERR3
 40
0.0
  9
$USERR4
 40
0.0
  9
$USERR5
 40
0.0
  9
$WORLDVIEW
 70
     1
  9
$SHADEDGE
 70
     3
  9
$SHADEDIF
 70
    70
  9
$TILEMODE
 70
     1
  9
$MAXACTVP
 70
    64
  9
$PINSBASE
 10
0.0
 20
0.0
 30
0.0
  9
$PLIMCHECK
 70
     0
  9
$PEXTMIN
 10
0.0
 20
0.0
 30
0.0
  9
$PEXTMAX
 10
0.0
 20
0.0
 30
0.0
  9
$PLIMMIN
 10
0.0
 20
0.0
  9
$PLIMMAX
 10
12.0
 20
9.0
  9
$UNITMODE
 70
     0
  9
$VISRETAIN
 70
     1
  9
$PLINEGEN
 70
     0
  9
$PSLTSCALE
 70
     1
  9
$TREEDEPTH
 70
  3020
  9
$CMLSTYLE
  2
Standard
  9
$CMLJUST
 70
     0
  9
$CMLSCALE
 40
1.0
  9
$PROXYGRAPHICS
 70
     1
  9
$MEASUREMENT
 70
     0
  9
$CELWEIGHT
370
    -1
  9
$ENDCAPS
280
     0
  9
$JOINSTYLE
280
     0
  9
$LWDISPLAY
290
     0
  9
$INSUNITS
 70
     1
  9
$HYPERLINKBASE
  1

  9
$STYLESHEET
  1

  9
$XEDIT
290
     1
  9
$CEPSNTYPE
380
     0
  9
$PSTYLEMODE
290
     1
  9
$FINGERPRINTGUID
  2
{BFC30B8D-6198-4782-8AAA-DAEACC3AAACA}
  9
$VERSIONGUID
  2
{3F3B5761-75FC-4E19-A338-BD0BD6EAFA61}
  9
$EXTNAMES
290
     1
  9
$PSVPSCALE
 40
0.0
  9
$OLESTARTUP
290
     0
  9
$SORTENTS
280
   127
  9
$INDEXCTL
280
     0
  9
$HIDETEXT
280
     1
  9
$XCLIPFRAME
280
     2
  9
$HALOGAP
280
     0
  9
$OBSCOLOR
 70
   257
  9
$OBSLTYPE
280
     0
  9
$INTERSECTIONDISPLAY
280
     0
  9
$INTERSECTIONCOLOR
 70
   257
  9
$DIMASSOC
280
     2
  9
$PROJECTNAME
  1

  9
$CAMERADISPLAY
290
     0
  9
$LENSLENGTH
 40
50.0
  9
$CAMERAHEIGHT
 40
0.0
  9
$STEPSPERSEC
 40
2.0
  9
$STEPSIZE
 40
6.0
  9
$3DDWFPREC
 40
2.0
  9
$PSOLWIDTH
 40
0.25
  9
$PSOLHEIGHT
 40
4.0
  9
$LOFTANG1
 40
1.570796326794896
  9
$LOFTANG2
 40
1.570796326794896
  9
$LOFTMAG1
 40
0.0
  9
$LOFTMAG2
 40
0.0
  9
$LOFTPARAM
 70
     7
  9
$LOFTNORMALS
280
     1
  9
$LATITUDE
 40
37.795
  9
$LONGITUDE
 40
-122.394
  9
$NORTHDIRECTION
 40
0.0
  9
$TIMEZONE
 70
 -8000
  9
$LIGHTGLYPHDISPLAY
280
     1
  9
$TILEMODELIGHTSYNCH
280
     1
  9
$CMATERIAL
347
96
  9
$SOLIDHIST
280
     1
  9
$SHOWHIST
280
     1
  9
$DWFFRAME
280
     2
  9
$DGNFRAME
280
     0
  9
$REALWORLDSCALE
290
     1
  9
$INTERFERECOLOR
 62
     1
  9
$INTERFEREOBJVS
345
A3
  9
$INTERFEREVPVS
346
17E
  9
$CSHADOW
280
     0
  9
$SHADOWPLANELOCATION
 40
0.0
  0
ENDSEC
  0
SECTION
  2
CLASSES
  0
CLASS
  1
ACDBDICTIONARYWDFLT
  2
AcDbDictionaryWithDefault
  3
ObjectDBX Classes
 90
        0
 91
        1
280
     0
281
     0
  0
CLASS
  1
DICTIONARYVAR
  2
AcDbDictionaryVar
  3
ObjectDBX Classes
 90
        0
 91
        7
280
     0
281
     0
  0
CLASS
  1
TABLESTYLE
  2
AcDbTableStyle
  3
ObjectDBX Classes
 90
     4095
 91
        1
280
     0
281
     0
  0
CLASS
  1
MATERIAL
  2
AcDbMaterial
  3
ObjectDBX Classes
 90
     1153
 91
        3
280
     0
281
     0
  0
CLASS
  1
VISUALSTYLE
  2
AcDbVisualStyle
  3
ObjectDBX Classes
 90
     4095
 91
       26
280
     0
281
     0
  0
CLASS
  1
SCALE
  2
AcDbScale
  3
ObjectDBX Classes
 90
     1153
 91
       33
280
     0
281
     0
  0
CLASS
  1
MLEADERSTYLE
  2
AcDbMLeaderStyle
  3
ACDB_MLEADERSTYLE_CLASS
 90
     4095
 91
        2
280
     0
281
     0
  0
CLASS
  1
CELLSTYLEMAP
  2
AcDbCellStyleMap
  3
ObjectDBX Classes
 90
     1152
 91
        2
280
     0
281
     0
  0
CLASS
  1
EXACXREFPANELOBJECT
  2
ExAcXREFPanelObject
  3
EXAC_ESW
 90
     1025
 91
        0
280
     0
281
     0
  0
CLASS
  1
NPOCOLLECTION
  2
AcDbImpNonPersistentObjectsCollection
  3
ObjectDBX Classes
 90
     1153
 91
        0
280
     0
281
     0
  0
CLASS
  1
LAYER_INDEX
  2
AcDbLayerIndex
  3
ObjectDBX Classes
 90
        0
 91
        0
280
     0
281
     0
  0
CLASS
  1
SPATIAL_INDEX
  2
AcDbSpatialIndex
  3
ObjectDBX Classes
 90
        0
 91
        0
280
     0
281
     0
  0
CLASS
  1
IDBUFFER
  2
AcDbIdBuffer
  3
ObjectDBX Classes
 90
        0
 91
        0
280
     0
281
     0
  0
CLASS
  1
ACSH_REVOLVE_CLASS
  2
AcDbShRevolve
  3
ObjectDBX Classes
 90
     1153
 91
        0
280
     0
281
     0
  0
CLASS
  1
ACAD_EVALUATION_GRAPH
  2
AcDbEvalGraph
  3
ObjectDBX Classes
 90
     1153
 91
        0
280
     0
281
     0
  0
CLASS
  1
ACSH_HISTORY_CLASS
  2
AcDbShHistory
  3
ObjectDBX Classes
 90
     1153
 91
        0
280
     0
281
     0
  0
CLASS
  1
ACSH_EXTRUSION_CLASS
  2
AcDbShExtrusion
  3
ObjectDBX Classes
 90
     1153
 91
        0
280
     0
281
     0
  0
CLASS
  1
SOLID_BACKGROUND
  2
AcDbSolidBackground
  3
SCENEOE
 90
     4095
 91
        0
280
     0
281
     0
  0
CLASS
  1
ACDBASSOCPERSSUBENTMANAGER
  2
AcDbAssocPersSubentManager
  3
ObjectDBX Classes
 90
     1024
 91
        1
280
     0
281
     0
  0
CLASS
  1
ACDBPERSSUBENTMANAGER
  2
AcDbPersSubentManager
  3
AcDbPersSubentManager
 90
     1024
 91
        1
280
     0
281
     0
  0
CLASS
  1
ACSH_BOOLEAN_CLASS
  2
AcDbShBoolean
  3
ObjectDBX Classes
 90
     1153
 91
        0
280
     0
281
     0
  0
CLASS
  1
DIMASSOC
  2
AcDbDimAssoc
  3
"AcDbDimAssoc|Product Desc:     AcDim ARX App For Dimension|Company:          Autodesk, Inc.|WEB Address:      www.autodesk.com"
 90
        0
 91
        5
280
     0
281
     0
  0
CLASS
  1
SORTENTSTABLE
  2
AcDbSortentsTable
  3
ObjectDBX Classes
 90
        0
 91
        1
280
     0
281
     0
  0
ENDSEC
  0
SECTION
  2
TABLES
  0
TABLE
  2
VPORT
  5
8
330
0
100
AcDbSymbolTable
 70
     1
  0
VPORT
  5
94
330
8
100
AcDbSymbolTableRecord
100
AcDbViewportTableRecord
  2
*Active
 70
     0
 10
0.0
 20
0.0
 11
1.0
 21
1.0
 12
-6.179920765294866
 22
-20.30486403820075
 13
0.0
 23
0.0
 14
0.5
 24
0.5
 15
0.5
 25
0.5
 16
-0.0000000000004761
 26
0.0
 36
162.8224960507833
 17
24.02968287802068
 27
31.71561683355371
 37
0.0000000000000275
 40
16.23238986190867
 41
2.346846846846846
 42
50.0
 43
0.0
 44
0.0
 50
0.0
 51
0.0
 71
     0
 72
  1000
 73
     1
 74
     3
 75
     0
 76
     0
 77
     0
 78
     0
281
     0
 65
     1
110
0.0
120
0.0
130
0.0
111
1.0
121
0.0
131
0.0
112
0.0
122
1.0
132
0.0
 79
     0
146
0.0
348
9F
 60
     2
 61
     5
292
     1
282
     1
141
0.0
142
0.0
 63
   250
421
  3355443
  0
ENDTAB
  0
TABLE
  2
LTYPE
  5
5
330
0
100
AcDbSymbolTable
 70
     1
  0
LTYPE
  5
14
330
5
100
AcDbSymbolTableRecord
100
AcDbLinetypeTableRecord
  2
ByBlock
 70
     0
  3

 72
    65
 73
     0
 40
0.0
  0
LTYPE
  5
15
330
5
100
AcDbSymbolTableRecord
100
AcDbLinetypeTableRecord
  2
ByLayer
 70
     0
  3

 72
    65
 73
     0
 40
0.0
  0
LTYPE
  5
16
330
5
100
AcDbSymbolTableRecord
100
AcDbLinetypeTableRecord
  2
Continuous
 70
     0
  3
Solid line
 72
    65
 73
     0
 40
0.0
  0
ENDTAB
  0
TABLE
  2
LAYER
  5
2
330
0
100
AcDbSymbolTable
 70
     4
  0
LAYER
  5
10
102
{ACAD_XDICTIONARY
360
E6
102
}
330
2
100
AcDbSymbolTableRecord
100
AcDbLayerTableRecord
  2
0
 70
     0
 62
     7
  6
Continuous
370
    -3
390
F
347
98
  0
LAYER
  5
1C1
330
2
100
AcDbSymbolTableRecord
100
AcDbLayerTableRecord
  2
Defpoints
 70
     0
 62
     7
  6
Continuous
290
     0
370
    -3
390
F
347
98
  0
LAYER
  5
33E
330
2
100
AcDbSymbolTableRecord
100
AcDbLayerTableRecord
  2
Layer1
 70
     0
 62
    10
  6
Continuous
370
    -3
390
F
347
98
1001
AcAecLayerStandard
1000

1000

1001
AcCmTransparency
1071
        0
  0
LAYER
  5
4EE
330
2
100
AcDbSymbolTableRecord
100
AcDbLayerTableRecord
  2
3D
 70
     0
 62
    54
420
 10984219
  6
Continuous
370
    -3
390
F
347
98
1001
AcAecLayerStandard
1000

1000

1001
AcCmTransparency
1071
        0
  0
ENDTAB
  0
TABLE
  2
STYLE
  5
3
330
0
100
AcDbSymbolTable
 70
     2
  0
STYLE
  5
11
330
3
100
AcDbSymbolTableRecord
100
AcDbTextStyleTableRecord
  2
Standard
 70
     0
 40
0.0
 41
1.0
 50
0.0
 71
     0
 42
0.2
  3
arial_0.ttf
  4

1001
ACAD
1000
Arial
1071
       34
  0
STYLE
  5
DC
330
3
100
AcDbSymbolTableRecord
100
AcDbTextStyleTableRecord
  2
Annotative
 70
     0
 40
0.0
 41
1.0
 50
0.0
 71
     0
 42
0.2
  3
arial_0.ttf
  4

1001
AcadAnnotative
1000
AnnotativeData
1002
{
1070
     1
1070
     1
1002
}
1001
ACAD
1000
Arial
1071
       34
  0
ENDTAB
  0
TABLE
  2
VIEW
  5
6
330
0
100
AcDbSymbolTable
 70
     0
  0
ENDTAB
  0
TABLE
  2
UCS
  5
7
330
0
100
AcDbSymbolTable
 70
     0
  0
ENDTAB
  0
TABLE
  2
APPID
  5
9
330
0
100
AcDbSymbolTable
 70
    10
  0
APPID
  5
12
330
9
100
AcDbSymbolTableRecord
100
AcDbRegAppTableRecord
  2
ACAD
 70
     0
  0
APPID
  5
DD
330
9
100
AcDbSymbolTableRecord
100
AcDbRegAppTableRecord
  2
AcadAnnoPO
 70
     0
  0
APPID
  5
DE
330
9
100
AcDbSymbolTableRecord
100
AcDbRegAppTableRecord
  2
AcadAnnotative
 70
     0
  0
APPID
  5
DF
330
9
100
AcDbSymbolTableRecord
100
AcDbRegAppTableRecord
  2
ACAD_DSTYLE_DIMJAG
 70
     0
  0
APPID
  5
E0
330
9
100
AcDbSymbolTableRecord
100
AcDbRegAppTableRecord
  2
ACAD_DSTYLE_DIMTALN
 70
     0
  0
APPID
  5
107
330
9
100
AcDbSymbolTableRecord
100
AcDbRegAppTableRecord
  2
ACAD_MLEADERVER
 70
     0
  0
APPID
  5
189
330
9
100
AcDbSymbolTableRecord
100
AcDbRegAppTableRecord
  2
ACAD_DSTYLE_DIMBREAK
 70
     0
  0
APPID
  5
196
330
9
100
AcDbSymbolTableRecord
100
AcDbRegAppTableRecord
  2
ACAD_EXEMPT_FROM_CAD_STANDARDS
 70
     0
  0
APPID
  5
33F
330
9
100
AcDbSymbolTableRecord
100
AcDbRegAppTableRecord
  2
AcAecLayerStandard
 70
     0
  0
APPID
  5
340
330
9
100
AcDbSymbolTableRecord
100
AcDbRegAppTableRecord
  2
AcCmTransparency
 70
     0
  0
ENDTAB
  0
TABLE
  2
DIMSTYLE
  5
A
330
0
100
AcDbSymbolTable
 70
     3
100
AcDbDimStyleTable
 71
     3
340
18A
340
27
340
E1
  0
DIMSTYLE
105
27
330
A
100
AcDbSymbolTableRecord
100
AcDbDimStyleTableRecord
  2
Standard
 70
     0
340
11
  0
DIMSTYLE
105
E1
330
A
100
AcDbSymbolTableRecord
100
AcDbDimStyleTableRecord
  2
Annotative
 70
     0
 40
0.0
340
11
1001
AcadAnnotative
1000
AnnotativeData
1002
{
1070
     1
1070
     1
1002
}
1001
ACAD_DSTYLE_DIMJAG
1070
   388
1040
1.5
1001
ACAD_DSTYLE_DIMTALN
1070
   392
1070
     0
  0
DIMSTYLE
105
18A
102
{ACAD_REACTORS
330
74E
330
782
330
7C1
330
7DB
102
}
330
A
100
AcDbSymbolTableRecord
100
AcDbDimStyleTableRecord
  2
New OWP
 70
     0
 41
0.5
 42
0.25
 44
0.25
 45
0.0625
140
0.7
141
0.0
276
     1
277
     5
340
11
1001
ACAD_DSTYLE_DIMBREAK
1070
   391
1040
0.125
1001
ACAD_DSTYLE_DIMJAG
1070
   388
1040
1.5
1001
ACAD_DSTYLE_DIMTALN
1070
   392
1070
     0
  0
ENDTAB
  0
TABLE
  2
BLOCK_RECORD
  5
1
330
0
100
AcDbSymbolTable
 70
    13
  0
BLOCK_RECORD
  5
1F
102
{ACAD_XDICTIONARY
360
15D
102
}
330
1
100
AcDbSymbolTableRecord
100
AcDbBlockTableRecord
  2
*Model_Space
340
22
 70
     0
280
     1
281
     0
  0
BLOCK_RECORD
  5
58
330
1
100
AcDbSymbolTableRecord
100
AcDbBlockTableRecord
  2
*Paper_Space
340
59
 70
     0
280
     1
281
     0
  0
BLOCK_RECORD
  5
5D
330
1
100
AcDbSymbolTableRecord
100
AcDbBlockTableRecord
  2
*Paper_Space0
340
5E
 70
     0
280
     1
281
     0
  0
BLOCK_RECORD
  5
2B9
330
1
100
AcDbSymbolTableRecord
100
AcDbBlockTableRecord
  2
_None
340
0
 70
     0
280
     1
281
     0
  0
BLOCK_RECORD
  5
301
330
1
100
AcDbSymbolTableRecord
100
AcDbBlockTableRecord
  2
_Open
340
0
 70
     0
280
     1
281
     0
  0
BLOCK_RECORD
  5
31B
330
1
100
AcDbSymbolTableRecord
100
AcDbBlockTableRecord
  2
_Open90
340
0
 70
     0
280
     1
281
     0
  0
BLOCK_RECORD
  5
59C
330
1
100
AcDbSymbolTableRecord
100
AcDbBlockTableRecord
  2
*D4
340
0
 70
     0
280
     1
281
     0
  0
BLOCK_RECORD
  5
5B6
330
1
100
AcDbSymbolTableRecord
100
AcDbBlockTableRecord
  2
*D5
340
0
 70
     0
280
     1
281
     0
  0
BLOCK_RECORD
  5
674
330
1
100
AcDbSymbolTableRecord
100
AcDbBlockTableRecord
  2
*D6
340
0
 70
     0
280
     1
281
     0
  0
BLOCK_RECORD
  5
68E
330
1
100
AcDbSymbolTableRecord
100
AcDbBlockTableRecord
  2
*D7
340
0
 70
     0
280
     1
281
     0
  0
BLOCK_RECORD
  5
74F
330
1
100
AcDbSymbolTableRecord
100
AcDbBlockTableRecord
  2
*D8
340
0
 70
     0
280
     1
281
     0
  0
BLOCK_RECORD
  5
769
330
1
100
AcDbSymbolTableRecord
100
AcDbBlockTableRecord
  2
*D9
340
0
 70
     0
280
     1
281
     0
  0
BLOCK_RECORD
  5
783
330
1
100
AcDbSymbolTableRecord
100
AcDbBlockTableRecord
  2
*D10
340
0
 70
     0
280
     1
281
     0
  0
BLOCK_RECORD
  5
7C2
330
1
100
AcDbSymbolTableRecord
100
AcDbBlockTableRecord
  2
*D11
340
0
 70
     0
280
     1
281
     0
  0
BLOCK_RECORD
  5
7DC
330
1
100
AcDbSymbolTableRecord
100
AcDbBlockTableRecord
  2
*D12
340
0
 70
     0
280
     1
281
     0
  0
ENDTAB
  0
ENDSEC
  0
SECTION
  2
BLOCKS
  0
BLOCK
  5
20
330
1F
100
AcDbEntity
  8
0
100
AcDbBlockBegin
  2
*Model_Space
 70
     0
 10
0.0
 20
0.0
 30
0.0
  3
*Model_Space
  1

  0
ENDBLK
  5
21
330
1F
100
AcDbEntity
  8
0
100
AcDbBlockEnd
  0
BLOCK
  5
5A
330
58
100
AcDbEntity
 67
     1
  8
0
100
AcDbBlockBegin
  2
*Paper_Space
 70
     0
 10
0.0
 20
0.0
 30
0.0
  3
*Paper_Space
  1

  0
ENDBLK
  5
5B
330
58
100
AcDbEntity
 67
     1
  8
0
100
AcDbBlockEnd
  0
BLOCK
  5
5F
330
5D
100
AcDbEntity
 67
     1
  8
0
100
AcDbBlockBegin
  2
*Paper_Space0
 70
     0
 10
0.0
 20
0.0
 30
0.0
  3
*Paper_Space0
  1

  0
ENDBLK
  5
60
330
5D
100
AcDbEntity
 67
     1
  8
0
100
AcDbBlockEnd
  0
BLOCK
  5
2BA
330
2B9
100
AcDbEntity
  8
0
100
AcDbBlockBegin
  2
_None
 70
     0
 10
0.0
 20
0.0
 30
0.0
  3
_None
  1

  0
ENDBLK
  5
2BB
330
2B9
100
AcDbEntity
  8
0
100
AcDbBlockEnd
  0
BLOCK
  5
305
330
301
100
AcDbEntity
  8
0
100
AcDbBlockBegin
  2
_Open
 70
     0
 10
0.0
 20
0.0
 30
0.0
  3
_Open
  1

  0
LINE
  5
302
330
301
100
AcDbEntity
  8
0
  6
ByBlock
 62
     0
370
    -2
100
AcDbLine
 10
-1.0
 20
0.1666666666666666
 30
0.0
 11
0.0
 21
0.0
 31
0.0
  0
LINE
  5
303
330
301
100
AcDbEntity
  8
0
  6
ByBlock
 62
     0
370
    -2
100
AcDbLine
 10
-1.0
 20
-0.1666666666666666
 30
0.0
 11
0.0
 21
0.0
 31
0.0
  0
LINE
  5
304
330
301
100
AcDbEntity
  8
0
  6
ByBlock
 62
     0
370
    -2
100
AcDbLine
 10
0.0
 20
0.0
 30
0.0
 11
-1.0
 21
0.0
 31
0.0
  0
ENDBLK
  5
306
330
301
100
AcDbEntity
  8
0
100
AcDbBlockEnd
  0
BLOCK
  5
31F
330
31B
100
AcDbEntity
  8
0
100
AcDbBlockBegin
  2
_Open90
 70
     0
 10
0.0
 20
0.0
 30
0.0
  3
_Open90
  1

  0
LINE
  5
31C
330
31B
100
AcDbEntity
  8
0
  6
ByBlock
 62
     0
370
    -2
100
AcDbLine
 10
-0.5
 20
0.5
 30
0.0
 11
0.0
 21
0.0
 31
0.0
  0
LINE
  5
31D
330
31B
100
AcDbEntity
  8
0
  6
ByBlock
 62
     0
370
    -2
100
AcDbLine
 10
0.0
 20
0.0
 30
0.0
 11
-0.5
 21
-0.5
 31
0.0
  0
LINE
  5
31E
330
31B
100
AcDbEntity
  8
0
  6
ByBlock
 62
     0
370
    -2
100
AcDbLine
 10
0.0
 20
0.0
 30
0.0
 11
-1.0
 21
0.0
 31
0.0
  0
ENDBLK
  5
320
330
31B
100
AcDbEntity
  8
0
100
AcDbBlockEnd
  0
BLOCK
  5
59D
330
59C
100
AcDbEntity
  8
0
100
AcDbBlockBegin
  2
*D4
 70
     1
 10
0.0
 20
0.0
 30
0.0
  3
*D4
  1

  0
LINE
  5
5D9
330
59C
100
AcDbEntity
  8
0
 62
     0
440
 16777216
370
    -2
100
AcDbLine
 10
15.21580355970217
 20
14.04447780541379
 30
0.0
 11
13.19520139451908
 21
14.04447780541379
 31
0.0
  0
LINE
  5
5DA
330
59C
100
AcDbEntity
  8
0
 62
     0
440
 16777216
370
    -2
100
AcDbLine
 10
15.21580355970217
 20
10.29700408618868
 30
0.0
 11
13.19520139451908
 21
10.29700408618868
 31
0.0
  0
LINE
  5
5DB
330
59C
100
AcDbEntity
  8
0
 62
     0
440
 16777216
370
    -2
100
AcDbLine
 10
13.37520139451908
 20
13.86447780541379
 30
0.0
 11
13.37520139451908
 21
12.35270547513275
 31
0.0
  0
LINE
  5
5DC
330
59C
100
AcDbEntity
  8
0
 62
     0
440
 16777216
370
    -2
100
AcDbLine
 10
13.37520139451908
 20
10.47700408618868
 30
0.0
 11
13.37520139451908
 21
11.98877641646972
 31
0.0
  0
SOLID
  5
5DD
330
59C
100
AcDbEntity
  8
0
 62
     0
440
 16777216
100
AcDbTrace
 10
13.34520139451908
 20
13.86447780541379
 30
0.0
 11
13.40520139451908
 21
13.86447780541379
 31
0.0
 12
13.37520139451908
 22
14.04447780541379
 32
0.0
 13
13.37520139451908
 23
14.04447780541379
 33
0.0
  0
SOLID
  5
5DE
330
59C
100
AcDbEntity
  8
0
 62
     0
440
 16777216
100
AcDbTrace
 10
13.34520139451908
 20
10.47700408618868
 30
0.0
 11
13.40520139451908
 21
10.47700408618868
 31
0.0
 12
13.37520139451908
 22
10.29700408618868
 32
0.0
 13
13.37520139451908
 23
10.29700408618868
 33
0.0
  0
MTEXT
  5
5DF
330
59C
100
AcDbEntity
  8
0
 62
     0
440
 16777216
100
AcDbMText
 10
13.37520139451908
 20
12.17074094580124
 30
0.0
 40
0.18
 41
0.0
 46
0.0
 71
     5
 72
     1
  1
\A1;3.7475
 73
     1
 44
1.0
  0
POINT
  5
5E0
330
59C
100
AcDbEntity
  8
Defpoints
 62
     0
440
 16777216
100
AcDbPoint
 10
15.27830355970217
 20
14.04447780541379
 30
0.0
  0
POINT
  5
5E1
330
59C
100
AcDbEntity
  8
Defpoints
 62
     0
440
 16777216
100
AcDbPoint
 10
15.27830355970217
 20
10.29700408618868
 30
0.0
  0
POINT
  5
5E2
330
59C
100
AcDbEntity
  8
Defpoints
 62
     0
440
 16777216
100
AcDbPoint
 10
13.37520139451908
 20
10.29700408618868
 30
0.0
  0
ENDBLK
  5
59E
330
59C
100
AcDbEntity
  8
0
100
AcDbBlockEnd
  0
BLOCK
  5
5B7
330
5B6
100
AcDbEntity
  8
0
100
AcDbBlockBegin
  2
*D5
 70
     1
 10
0.0
 20
0.0
 30
0.0
  3
*D5
  1

  0
LINE
  5
5C4
330
5B6
100
AcDbEntity
  8
0
 62
     0
440
 16777216
370
    -2
100
AcDbLine
 10
15.08949161225922
 20
14.04443627475763
 30
0.0
 11
13.30283912156975
 21
14.04443627475763
 31
0.0
  0
LINE
  5
5C5
330
5B6
100
AcDbEntity
  8
0
 62
     0
440
 16777216
370
    -2
100
AcDbLine
 10
16.06826540878338
 20
10.29700408618868
 30
0.0
 11
13.30283912156975
 21
10.29700408618868
 31
0.0
  0
LINE
  5
5C6
330
5B6
100
AcDbEntity
  8
0
 62
     0
440
 16777216
370
    -2
100
AcDbLine
 10
13.48283912156975
 20
13.86443627475763
 30
0.0
 11
13.48283912156975
 21
12.35268470980467
 31
0.0
  0
LINE
  5
5C7
330
5B6
100
AcDbEntity
  8
0
 62
     0
440
 16777216
370
    -2
100
AcDbLine
 10
13.48283912156975
 20
10.47700408618868
 30
0.0
 11
13.48283912156975
 21
11.98875565114164
 31
0.0
  0
SOLID
  5
5C8
330
5B6
100
AcDbEntity
  8
0
 62
     0
440
 16777216
100
AcDbTrace
 10
13.45283912156975
 20
13.86443627475763
 30
0.0
 11
13.51283912156975
 21
13.86443627475763
 31
0.0
 12
13.48283912156975
 22
14.04443627475763
 32
0.0
 13
13.48283912156975
 23
14.04443627475763
 33
0.0
  0
SOLID
  5
5C9
330
5B6
100
AcDbEntity
  8
0
 62
     0
440
 16777216
100
AcDbTrace
 10
13.45283912156975
 20
10.47700408618868
 30
0.0
 11
13.51283912156975
 21
10.47700408618868
 31
0.0
 12
13.48283912156975
 22
10.29700408618868
 32
0.0
 13
13.48283912156975
 23
10.29700408618868
 33
0.0
  0
MTEXT
  5
5CA
330
5B6
100
AcDbEntity
  8
0
 62
     0
440
 16777216
100
AcDbMText
 10
13.48283912156975
 20
12.17072018047316
 30
0.0
 40
0.18
 41
0.0
 46
0.0
 71
     5
 72
     1
  1
\A1;3.7474
 73
     1
 44
1.0
  0
POINT
  5
5CB
330
5B6
100
AcDbEntity
  8
Defpoints
 62
     0
440
 16777216
100
AcDbPoint
 10
15.15199161225922
 20
14.04443627475763
 30
0.0
  0
POINT
  5
5CC
330
5B6
100
AcDbEntity
  8
Defpoints
 62
     0
440
 16777216
100
AcDbPoint
 10
16.13076540878338
 20
10.29700408618868
 30
0.0
  0
POINT
  5
5CD
330
5B6
100
AcDbEntity
  8
Defpoints
 62
     0
440
 16777216
100
AcDbPoint
 10
13.48283912156975
 20
10.29700408618868
 30
0.0
  0
ENDBLK
  5
5B8
330
5B6
100
AcDbEntity
  8
0
100
AcDbBlockEnd
  0
BLOCK
  5
675
330
674
100
AcDbEntity
  8
0
100
AcDbBlockBegin
  2
*D6
 70
     1
 10
0.0
 20
0.0
 30
0.0
  3
*D6
  1

  0
LINE
  5
6B1
330
674
100
AcDbEntity
  8
0
 62
     0
440
 16777216
370
    -2
100
AcDbLine
 10
16.54161749361521
 20
12.58058867983786
 30
0.0
 11
15.65790831939769
 21
12.58058867983786
 31
0.0
  0
LINE
  5
6B2
330
674
100
AcDbEntity
  8
0
 62
     0
440
 16777216
370
    -2
100
AcDbLine
 10
16.86454201802489
 20
8.949571182151842
 30
0.0
 11
15.65790831939768
 21
8.949571182151842
 31
0.0
  0
LINE
  5
6B3
330
674
100
AcDbEntity
  8
0
 62
     0
440
 16777216
370
    -2
100
AcDbLine
 10
15.83790831939769
 20
12.40058867983786
 30
0.0
 11
15.83790831939768
 21
10.94704446032636
 31
0.0
  0
LINE
  5
6B4
330
674
100
AcDbEntity
  8
0
 62
     0
440
 16777216
370
    -2
100
AcDbLine
 10
15.83790831939768
 20
9.129571182151842
 30
0.0
 11
15.83790831939768
 21
10.58311540166333
 31
0.0
  0
SOLID
  5
6B5
330
674
100
AcDbEntity
  8
0
 62
     0
440
 16777216
100
AcDbTrace
 10
15.80790831939769
 20
12.40058867983786
 30
0.0
 11
15.86790831939769
 21
12.40058867983786
 31
0.0
 12
15.83790831939769
 22
12.58058867983786
 32
0.0
 13
15.83790831939769
 23
12.58058867983786
 33
0.0
  0
SOLID
  5
6B6
330
674
100
AcDbEntity
  8
0
 62
     0
440
 16777216
100
AcDbTrace
 10
15.80790831939768
 20
9.129571182151842
 30
0.0
 11
15.86790831939768
 21
9.129571182151842
 31
0.0
 12
15.83790831939768
 22
8.949571182151842
 32
0.0
 13
15.83790831939768
 23
8.949571182151842
 33
0.0
  0
MTEXT
  5
6B7
330
674
100
AcDbEntity
  8
0
 62
     0
440
 16777216
100
AcDbMText
 10
15.83790831939768
 20
10.76507993099485
 30
0.0
 40
0.18
 41
0.0
 46
0.0
 71
     5
 72
     1
  1
\A1;3.6310
 73
     1
 44
1.0
  0
POINT
  5
6B8
330
674
100
AcDbEntity
  8
Defpoints
 62
     0
440
 16777216
100
AcDbPoint
 10
16.60411749361521
 20
12.58058867983786
 30
0.0
  0
POINT
  5
6B9
330
674
100
AcDbEntity
  8
Defpoints
 62
     0
440
 16777216
100
AcDbPoint
 10
16.92704201802489
 20
8.949571182151842
 30
0.0
  0
POINT
  5
6BA
330
674
100
AcDbEntity
  8
Defpoints
 62
     0
440
 16777216
100
AcDbPoint
 10
15.83790831939768
 20
8.949571182151842
 30
0.0
  0
ENDBLK
  5
676
330
674
100
AcDbEntity
  8
0
100
AcDbBlockEnd
  0
BLOCK
  5
68F
330
68E
100
AcDbEntity
  8
0
100
AcDbBlockBegin
  2
*D7
 70
     1
 10
0.0
 20
0.0
 30
0.0
  3
*D7
  1

  0
LINE
  5
69C
330
68E
100
AcDbEntity
  8
0
 62
     0
440
 16777216
370
    -2
100
AcDbLine
 10
12.22314967432649
 20
12.58057118215184
 30
0.0
 11
11.12674782350431
 21
12.58057118215184
 31
0.0
  0
LINE
  5
69D
330
68E
100
AcDbEntity
  8
0
 62
     0
440
 16777216
370
    -2
100
AcDbLine
 10
12.22314967432649
 20
8.949571182151842
 30
0.0
 11
11.12674782350431
 21
8.949571182151842
 31
0.0
  0
LINE
  5
69E
330
68E
100
AcDbEntity
  8
0
 62
     0
440
 16777216
370
    -2
100
AcDbLine
 10
11.30674782350431
 20
12.40057118215184
 30
0.0
 11
11.30674782350431
 21
10.94703571148336
 31
0.0
  0
LINE
  5
69F
330
68E
100
AcDbEntity
  8
0
 62
     0
440
 16777216
370
    -2
100
AcDbLine
 10
11.30674782350431
 20
9.129571182151844
 30
0.0
 11
11.30674782350431
 21
10.58310665282033
 31
0.0
  0
SOLID
  5
6A0
330
68E
100
AcDbEntity
  8
0
 62
     0
440
 16777216
100
AcDbTrace
 10
11.27674782350431
 20
12.40057118215184
 30
0.0
 11
11.33674782350431
 21
12.40057118215184
 31
0.0
 12
11.30674782350431
 22
12.58057118215184
 32
0.0
 13
11.30674782350431
 23
12.58057118215184
 33
0.0
  0
SOLID
  5
6A1
330
68E
100
AcDbEntity
  8
0
 62
     0
440
 16777216
100
AcDbTrace
 10
11.27674782350431
 20
9.129571182151844
 30
0.0
 11
11.33674782350431
 21
9.129571182151844
 31
0.0
 12
11.30674782350431
 22
8.949571182151842
 32
0.0
 13
11.30674782350431
 23
8.949571182151842
 33
0.0
  0
MTEXT
  5
6A2
330
68E
100
AcDbEntity
  8
0
 62
     0
440
 16777216
100
AcDbMText
 10
11.30674782350431
 20
10.76507118215184
 30
0.0
 40
0.18
 41
0.0
 46
0.0
 71
     5
 72
     1
  1
\A1;3.6310
 73
     1
 44
1.0
  0
POINT
  5
6A3
330
68E
100
AcDbEntity
  8
Defpoints
 62
     0
440
 16777216
100
AcDbPoint
 10
12.28564967432649
 20
12.58057118215184
 30
0.0
  0
POINT
  5
6A4
330
68E
100
AcDbEntity
  8
Defpoints
 62
     0
440
 16777216
100
AcDbPoint
 10
12.28564967432649
 20
8.949571182151842
 30
0.0
  0
POINT
  5
6A5
330
68E
100
AcDbEntity
  8
Defpoints
 62
     0
440
 16777216
100
AcDbPoint
 10
11.30674782350431
 20
8.949571182151842
 30
0.0
  0
ENDBLK
  5
690
330
68E
100
AcDbEntity
  8
0
100
AcDbBlockEnd
  0
BLOCK
  5
750
330
74F
100
AcDbEntity
  8
0
100
AcDbBlockBegin
  2
*D8
 70
     1
 10
0.0
 20
0.0
 30
0.0
  3
*D8
  1

  0
LINE
  5
7A3
330
74F
100
AcDbEntity
  8
0
 62
     0
440
 16777216
370
    -2
100
AcDbLine
 10
13.33922499950935
 20
14.49897492358827
 30
0.0
 11
10.45173479215349
 21
14.49897492358827
 31
0.0
  0
LINE
  5
7A4
330
74F
100
AcDbEntity
  8
0
 62
     0
440
 16777216
370
    -2
100
AcDbLine
 10
13.76236747977031
 20
9.741089926620386
 30
0.0
 11
10.45173479215349
 21
9.741089926620388
 31
0.0
  0
LINE
  5
7A5
330
74F
100
AcDbEntity
  8
0
 62
     0
440
 16777216
370
    -2
100
AcDbLine
 10
10.70173479215349
 20
13.99897492358827
 30
0.0
 11
10.70173479215349
 21
12.91767226139355
 31
0.0
  0
LINE
  5
7A6
330
74F
100
AcDbEntity
  8
0
 62
     0
440
 16777216
370
    -2
100
AcDbLine
 10
10.70173479215348
 20
10.24108992662039
 30
0.0
 11
10.70173479215348
 21
11.32239258881511
 31
0.0
  0
SOLID
  5
7A7
330
74F
100
AcDbEntity
  8
0
 62
     0
440
 16777216
100
AcDbTrace
 10
10.61840145882015
 20
13.99897492358827
 30
0.0
 11
10.78506812548682
 21
13.99897492358827
 31
0.0
 12
10.70173479215349
 22
14.49897492358827
 32
0.0
 13
10.70173479215349
 23
14.49897492358827
 33
0.0
  0
SOLID
  5
7A8
330
74F
100
AcDbEntity
  8
0
 62
     0
440
 16777216
100
AcDbTrace
 10
10.61840145882015
 20
10.24108992662039
 30
0.0
 11
10.78506812548682
 21
10.24108992662039
 31
0.0
 12
10.70173479215348
 22
9.741089926620388
 32
0.0
 13
10.70173479215348
 23
9.741089926620388
 33
0.0
  0
MTEXT
  5
7A9
330
74F
100
AcDbEntity
  8
0
 62
     0
440
 16777216
100
AcDbMText
 10
10.70173479215348
 20
12.12003242510433
 30
0.0
 40
0.7
 41
0.0
 46
0.0
 71
     5
 72
     1
  1
\A1;4{\H1.000000x;\S3#4;}
 73
     1
 44
1.0
  0
POINT
  5
7AA
330
74F
100
AcDbEntity
  8
Defpoints
 62
     0
440
 16777216
100
AcDbPoint
 10
13.58922499950935
 20
14.49897492358827
 30
0.0
  0
POINT
  5
7AB
330
74F
100
AcDbEntity
  8
Defpoints
 62
     0
440
 16777216
100
AcDbPoint
 10
14.01236747977031
 20
9.741089926620386
 30
0.0
  0
POINT
  5
7AC
330
74F
100
AcDbEntity
  8
Defpoints
 62
     0
440
 16777216
100
AcDbPoint
 10
10.70173479215348
 20
9.741089926620388
 30
0.0
  0
ENDBLK
  5
751
330
74F
100
AcDbEntity
  8
0
100
AcDbBlockEnd
  0
BLOCK
  5
76A
330
769
100
AcDbEntity
  8
0
100
AcDbBlockBegin
  2
*D9
 70
     1
 10
0.0
 20
0.0
 30
0.0
  3
*D9
  1

  0
LINE
  5
7AD
330
769
100
AcDbEntity
  8
0
 62
     0
440
 16777216
370
    -2
100
AcDbLine
 10
13.58922499950935
 20
14.74897492358827
 30
0.0
 11
13.58922499950935
 21
17.8733081239733
 31
0.0
  0
LINE
  5
7AE
330
769
100
AcDbEntity
  8
0
 62
     0
440
 16777216
370
    -2
100
AcDbLine
 10
16.80610396456936
 20
14.74897492358827
 30
0.0
 11
16.80610396456936
 21
17.8733081239733
 31
0.0
  0
LINE
  5
7AF
330
769
100
AcDbEntity
  8
0
 62
     0
440
 16777216
370
    -2
100
AcDbLine
 10
13.08922499950935
 20
17.6233081239733
 30
0.0
 11
12.58922499950935
 21
17.6233081239733
 31
0.0
  0
LINE
  5
7B0
330
769
100
AcDbEntity
  8
0
 62
     0
440
 16777216
370
    -2
100
AcDbLine
 10
17.30610396456936
 20
17.6233081239733
 30
0.0
 11
17.80610396456936
 21
17.6233081239733
 31
0.0
  0
SOLID
  5
7B1
330
769
100
AcDbEntity
  8
0
 62
     0
440
 16777216
100
AcDbTrace
 10
13.08922499950935
 20
17.70664145730663
 30
0.0
 11
13.08922499950935
 21
17.53997479063997
 31
0.0
 12
13.58922499950935
 22
17.6233081239733
 32
0.0
 13
13.58922499950935
 23
17.6233081239733
 33
0.0
  0
SOLID
  5
7B2
330
769
100
AcDbEntity
  8
0
 62
     0
440
 16777216
100
AcDbTrace
 10
17.30610396456936
 20
17.70664145730663
 30
0.0
 11
17.30610396456936
 21
17.53997479063997
 31
0.0
 12
16.80610396456936
 22
17.6233081239733
 32
0.0
 13
16.80610396456936
 23
17.6233081239733
 33
0.0
  0
MTEXT
  5
7B3
330
769
100
AcDbEntity
  8
0
 62
     0
440
 16777216
100
AcDbMText
 10
15.19766448203936
 20
17.6233081239733
 30
0.0
 40
0.7
 41
0.0
 46
0.0
 71
     5
 72
     1
  1
\A1;3{\H1.000000x;\S3#16;}
 73
     1
 44
1.0
  0
POINT
  5
7B4
330
769
100
AcDbEntity
  8
Defpoints
 62
     0
440
 16777216
100
AcDbPoint
 10
13.58922499950935
 20
14.49897492358827
 30
0.0
  0
POINT
  5
7B5
330
769
100
AcDbEntity
  8
Defpoints
 62
     0
440
 16777216
100
AcDbPoint
 10
16.80610396456936
 20
14.49897492358827
 30
0.0
  0
POINT
  5
7B6
330
769
100
AcDbEntity
  8
Defpoints
 62
     0
440
 16777216
100
AcDbPoint
 10
16.80610396456936
 20
17.6233081239733
 30
0.0
  0
ENDBLK
  5
76B
330
769
100
AcDbEntity
  8
0
100
AcDbBlockEnd
  0
BLOCK
  5
784
330
783
100
AcDbEntity
  8
0
100
AcDbBlockBegin
  2
*D10
 70
     1
 10
0.0
 20
0.0
 30
0.0
  3
*D10
  1

  0
LINE
  5
7F5
330
783
100
AcDbEntity
  8
0
 62
     0
440
 16777216
370
    -2
100
AcDbLine
 10
14.01236747977031
 20
9.491089926620386
 30
0.0
 11
14.01236747977031
 21
7.408332872879205
 31
0.0
  0
LINE
  5
7F6
330
783
100
AcDbEntity
  8
0
 62
     0
440
 16777216
370
    -2
100
AcDbLine
 10
16.3829614843084
 20
9.491089926620386
 30
0.0
 11
16.3829614843084
 21
7.408332872879205
 31
0.0
  0
LINE
  5
7F7
330
783
100
AcDbEntity
  8
0
 62
     0
440
 16777216
370
    -2
100
AcDbLine
 10
13.51236747977031
 20
7.658332872879205
 30
0.0
 11
13.01236747977031
 21
7.658332872879205
 31
0.0
  0
LINE
  5
7F8
330
783
100
AcDbEntity
  8
0
 62
     0
440
 16777216
370
    -2
100
AcDbLine
 10
16.8829614843084
 20
7.658332872879205
 30
0.0
 11
17.3829614843084
 21
7.658332872879205
 31
0.0
  0
SOLID
  5
7F9
330
783
100
AcDbEntity
  8
0
 62
     0
440
 16777216
100
AcDbTrace
 10
13.51236747977031
 20
7.741666206212538
 30
0.0
 11
13.51236747977031
 21
7.574999539545872
 31
0.0
 12
14.01236747977031
 22
7.658332872879205
 32
0.0
 13
14.01236747977031
 23
7.658332872879205
 33
0.0
  0
SOLID
  5
7FA
330
783
100
AcDbEntity
  8
0
 62
     0
440
 16777216
100
AcDbTrace
 10
16.8829614843084
 20
7.741666206212538
 30
0.0
 11
16.8829614843084
 21
7.574999539545872
 31
0.0
 12
16.3829614843084
 22
7.658332872879205
 32
0.0
 13
16.3829614843084
 23
7.658332872879205
 33
0.0
  0
MTEXT
  5
7FB
330
783
100
AcDbEntity
  8
0
 62
     0
440
 16777216
100
AcDbMText
 10
15.19766448203936
 20
7.658332872879205
 30
0.0
 40
0.7
 41
0.0
 46
0.0
 71
     5
 72
     1
  1
\A1;2{\H1.000000x;\S3#8;}
 73
     1
 44
1.0
  0
POINT
  5
7FC
330
783
100
AcDbEntity
  8
Defpoints
 62
     0
440
 16777216
100
AcDbPoint
 10
14.01236747977031
 20
9.741089926620386
 30
0.0
  0
POINT
  5
7FD
330
783
100
AcDbEntity
  8
Defpoints
 62
     0
440
 16777216
100
AcDbPoint
 10
16.3829614843084
 20
9.741089926620386
 30
0.0
  0
POINT
  5
7FE
330
783
100
AcDbEntity
  8
Defpoints
 62
     0
440
 16777216
100
AcDbPoint
 10
16.3829614843084
 20
7.658332872879205
 30
0.0
  0
ENDBLK
  5
785
330
783
100
AcDbEntity
  8
0
100
AcDbBlockEnd
  0
BLOCK
  5
7C3
330
7C2
100
AcDbEntity
  8
0
100
AcDbBlockBegin
  2
*D11
 70
     1
 10
0.0
 20
0.0
 30
0.0
  3
*D11
  1

  0
LINE
  5
7D0
330
7C2
100
AcDbEntity
  8
0
 62
     0
440
 16777216
370
    -2
100
AcDbLine
 10
13.45624658231691
 20
13.85973922286141
 30
0.0
 11
13.45624658231691
 21
17.8733081239733
 31
0.0
  0
LINE
  5
7D1
330
7C2
100
AcDbEntity
  8
0
 62
     0
440
 16777216
370
    -2
100
AcDbLine
 10
16.9390823817618
 20
13.85973922286141
 30
0.0
 11
16.9390823817618
 21
17.8733081239733
 31
0.0
  0
LINE
  5
7D2
330
7C2
100
AcDbEntity
  8
0
 62
     0
440
 16777216
370
    -2
100
AcDbLine
 10
13.95624658231691
 20
17.6233081239733
 30
0.0
 11
14.37885593269875
 21
17.6233081239733
 31
0.0
  0
LINE
  5
7D3
330
7C2
100
AcDbEntity
  8
0
 62
     0
440
 16777216
370
    -2
100
AcDbLine
 10
16.4390823817618
 20
17.6233081239733
 30
0.0
 11
16.01647303137997
 21
17.6233081239733
 31
0.0
  0
SOLID
  5
7D4
330
7C2
100
AcDbEntity
  8
0
 62
     0
440
 16777216
100
AcDbTrace
 10
13.95624658231691
 20
17.70664145730663
 30
0.0
 11
13.95624658231691
 21
17.53997479063997
 31
0.0
 12
13.45624658231691
 22
17.6233081239733
 32
0.0
 13
13.45624658231691
 23
17.6233081239733
 33
0.0
  0
SOLID
  5
7D5
330
7C2
100
AcDbEntity
  8
0
 62
     0
440
 16777216
100
AcDbTrace
 10
16.4390823817618
 20
17.70664145730663
 30
0.0
 11
16.4390823817618
 21
17.53997479063997
 31
0.0
 12
16.9390823817618
 22
17.6233081239733
 32
0.0
 13
16.9390823817618
 23
17.6233081239733
 33
0.0
  0
MTEXT
  5
7D6
330
7C2
100
AcDbEntity
  8
0
 62
     0
440
 16777216
100
AcDbMText
 10
15.19766448203936
 20
17.6233081239733
 30
0.0
 40
0.7
 41
0.0
 46
0.0
 71
     5
 72
     1
  1
\A1;3{\H1.000000x;\S1#2;}
 73
     1
 44
1.0
  0
POINT
  5
7D7
330
7C2
100
AcDbEntity
  8
Defpoints
 62
     0
440
 16777216
100
AcDbPoint
 10
13.45624658231691
 20
13.60973922286141
 30
0.0
  0
POINT
  5
7D8
330
7C2
100
AcDbEntity
  8
Defpoints
 62
     0
440
 16777216
100
AcDbPoint
 10
16.9390823817618
 20
13.60973922286141
 30
0.0
  0
POINT
  5
7D9
330
7C2
100
AcDbEntity
  8
Defpoints
 62
     0
440
 16777216
100
AcDbPoint
 10
16.9390823817618
 20
17.6233081239733
 30
0.0
  0
ENDBLK
  5
7C4
330
7C2
100
AcDbEntity
  8
0
100
AcDbBlockEnd
  0
BLOCK
  5
7DD
330
7DC
100
AcDbEntity
  8
0
100
AcDbBlockBegin
  2
*D12
 70
     1
 10
0.0
 20
0.0
 30
0.0
  3
*D12
  1

  0
LINE
  5
7EA
330
7DC
100
AcDbEntity
  8
0
 62
     0
440
 16777216
370
    -2
100
AcDbLine
 10
21.16658007943328
 20
14.74897498140514
 30
0.0
 11
21.16658007943328
 21
17.8733081239733
 31
0.0
  0
LINE
  5
7EB
330
7DC
100
AcDbEntity
  8
0
 62
     0
440
 16777216
370
    -2
100
AcDbLine
 10
22.90799797915572
 20
13.85973928067829
 30
0.0
 11
22.90799797915572
 21
17.8733081239733
 31
0.0
  0
LINE
  5
7EC
330
7DC
100
AcDbEntity
  8
0
 62
     0
440
 16777216
370
    -2
100
AcDbLine
 10
21.66658007943328
 20
17.6233081239733
 30
0.0
 11
22.40799797915572
 21
17.6233081239733
 31
0.0
  0
LINE
  5
7ED
330
7DC
100
AcDbEntity
  8
0
 62
     0
440
 16777216
370
    -2
100
AcDbLine
 10
22.90799797915572
 20
17.6233081239733
 30
0.0
 11
23.40799797915572
 21
17.6233081239733
 31
0.0
  0
SOLID
  5
7EE
330
7DC
100
AcDbEntity
  8
0
 62
     0
440
 16777216
100
AcDbTrace
 10
21.66658007943328
 20
17.70664145730663
 30
0.0
 11
21.66658007943328
 21
17.53997479063997
 31
0.0
 12
21.16658007943328
 22
17.6233081239733
 32
0.0
 13
21.16658007943328
 23
17.6233081239733
 33
0.0
  0
SOLID
  5
7EF
330
7DC
100
AcDbEntity
  8
0
 62
     0
440
 16777216
100
AcDbTrace
 10
22.40799797915572
 20
17.70664145730663
 30
0.0
 11
22.40799797915572
 21
17.53997479063997
 31
0.0
 12
22.90799797915572
 22
17.6233081239733
 32
0.0
 13
22.90799797915572
 23
17.6233081239733
 33
0.0
  0
MTEXT
  5
7F0
330
7DC
100
AcDbEntity
  8
0
 62
     0
440
 16777216
100
AcDbMText
 10
24.30463736069278
 20
17.6233081239733
 30
0.0
 40
0.7
 41
0.0
 46
0.0
 71
     5
 72
     1
  1
\A1;1{\H1.000000x;\S3#4;}
 73
     1
 44
1.0
  0
POINT
  5
7F1
330
7DC
100
AcDbEntity
  8
Defpoints
 62
     0
440
 16777216
100
AcDbPoint
 10
21.16658007943328
 20
14.49897498140514
 30
0.0
  0
POINT
  5
7F2
330
7DC
100
AcDbEntity
  8
Defpoints
 62
     0
440
 16777216
100
AcDbPoint
 10
22.90799797915572
 20
13.60973928067829
 30
0.0
  0
POINT
  5
7F3
330
7DC
100
AcDbEntity
  8
Defpoints
 62
     0
440
 16777216
100
AcDbPoint
 10
22.90799797915572
 20
17.6233081239733
 30
0.0
  0
ENDBLK
  5
7DE
330
7DC
100
AcDbEntity
  8
0
100
AcDbBlockEnd
  0
ENDSEC
  0
SECTION
  2
ENTITIES
  0
LINE
  5
504
330
1F
100
AcDbEntity
  8
0
100
AcDbLine
 10
16.3829614843084
 20
9.741089926620386
 30
0.0
 11
16.38557073804191
 21
10.05569729150359
 31
0.0
  0
ARC
  5
505
330
1F
100
AcDbEntity
  8
0
100
AcDbCircle
 10
16.13853753328898
 20
10.40819010232798
 30
0.0
 40
0.4304376678839527
100
AcDbArc
 50
305.0234519979658
 51
63.82198005234966
  0
ARC
  5
506
330
1F
100
AcDbEntity
  8
0
100
AcDbCircle
 10
10.63457465019427
 20
11.54453651764962
 30
0.0
 40
5.743046132631889
100
AcDbArc
 50
352.495554633271
 51
353.4037616451056
  0
ARC
  5
507
330
1F
100
AcDbEntity
  8
0
100
AcDbCircle
 10
19.38340475911743
 20
12.27834637641427
 30
0.0
 40
3.03651345050003
100
AcDbArc
 50
168.9866956712483
 51
184.680490407911
  0
ARC
  5
508
330
1F
100
AcDbEntity
  8
0
100
AcDbCircle
 10
17.44608037498565
 20
12.6096342966787
 30
0.0
 40
1.072521675796863
100
AcDbArc
 50
124.1637145676136
 51
166.5866201655567
  0
ARC
  5
509
330
1F
100
AcDbEntity
  8
0
100
AcDbCircle
 10
16.68750687813062
 20
13.75930277748852
 30
0.0
 40
0.3052673463658524
100
AcDbArc
 50
300.7953723685042
 51
323.691675960141
  0
ARC
  5
50A
102
{ACAD_REACTORS
330
7DA
102
}
330
1F
100
AcDbEntity
  8
0
100
AcDbCircle
 10
16.84906987444842
 20
13.60973922286141
 30
0.0
 40
0.0900125073133861
100
AcDbArc
 50
339.7231132963881
 51
35.39762305805631
  0
ARC
  5
50B
330
1F
100
AcDbEntity
  8
0
100
AcDbCircle
 10
16.59910403528085
 20
13.22463948886237
 30
0.0
 40
0.5438076081243911
100
AcDbArc
 50
53.51696601712802
 51
66.70561960526381
  0
LINE
  5
50C
330
1F
100
AcDbEntity
  8
0
100
AcDbLine
 10
16.81415570073913
 20
13.72411871349296
 30
0.0
 11
16.82688746472056
 21
13.90929444475309
 31
0.0
  0
ARC
  5
50D
330
1F
100
AcDbEntity
  8
0
100
AcDbCircle
 10
16.69762023657538
 20
14.11589479325597
 30
0.0
 40
0.2437082687843274
100
AcDbArc
 50
302.033694996788
 51
345.9864759459322
  0
ARC
  5
50E
330
1F
100
AcDbEntity
  8
0
100
AcDbCircle
 10
16.41627336411394
 20
14.18672222632636
 30
0.0
 40
0.5338331184719482
100
AcDbArc
 50
345.923033096764
 51
17.10214113440621
  0
ARC
  5
50F
330
1F
100
AcDbEntity
  8
0
100
AcDbCircle
 10
16.66528508180988
 20
14.26546693851524
 30
0.0
 40
0.2726828502757264
100
AcDbArc
 50
16.67466991802186
 51
58.90758164122785
  0
LINE
  5
525
330
1F
100
AcDbEntity
  8
0
100
AcDbLine
 10
14.01236747977031
 20
9.741089926620386
 30
0.0
 11
14.0097582260368
 21
10.05569729150359
 31
0.0
  0
ARC
  5
526
330
1F
100
AcDbEntity
  8
0
100
AcDbCircle
 10
14.25679143078974
 20
10.40819010232798
 30
0.0
 40
0.4304376678839527
100
AcDbArc
 50
116.1780199476501
 51
234.9765480020344
  0
ARC
  5
527
330
1F
100
AcDbEntity
  8
0
100
AcDbCircle
 10
19.76075431388446
 20
11.54453651764962
 30
0.0
 40
5.743046132631889
100
AcDbArc
 50
175.1452615302346
 51
186.1219258979306
  0
ARC
  5
528
330
1F
100
AcDbEntity
  8
0
100
AcDbCircle
 10
11.01192420496128
 20
12.27834637641427
 30
0.0
 40
3.03651345050003
100
AcDbArc
 50
355.319509592089
 51
11.01330432875158
  0
ARC
  5
529
330
1F
100
AcDbEntity
  8
0
100
AcDbCircle
 10
12.94924858909308
 20
12.6096342966787
 30
0.0
 40
1.072521675796863
100
AcDbArc
 50
13.41337983444321
 51
55.83628543238628
  0
ARC
  5
52A
330
1F
100
AcDbEntity
  8
0
100
AcDbCircle
 10
13.7078220859481
 20
13.75930277748852
 30
0.0
 40
0.3052673463658524
100
AcDbArc
 50
216.3083240398589
 51
239.204627631496
  0
ARC
  5
52B
102
{ACAD_REACTORS
330
7DA
102
}
330
1F
100
AcDbEntity
  8
0
100
AcDbCircle
 10
13.54625908963029
 20
13.60973922286141
 30
0.0
 40
0.0900125073133861
100
AcDbArc
 50
144.6023769419436
 51
200.2768867036119
  0
ARC
  5
52C
330
1F
100
AcDbEntity
  8
0
100
AcDbCircle
 10
13.79622492879787
 20
13.22463948886237
 30
0.0
 40
0.5438076081243911
100
AcDbArc
 50
113.2943803947361
 51
126.483033982872
  0
LINE
  5
52D
330
1F
100
AcDbEntity
  8
0
100
AcDbLine
 10
13.58117326333957
 20
13.72411871349296
 30
0.0
 11
13.56844149935815
 21
13.90929444475309
 31
0.0
  0
ARC
  5
52E
330
1F
100
AcDbEntity
  8
0
100
AcDbCircle
 10
13.69770872750333
 20
14.11589479325597
 30
0.0
 40
0.2437082687843274
100
AcDbArc
 50
194.0135240540679
 51
237.966305003212
  0
ARC
  5
52F
330
1F
100
AcDbEntity
  8
0
100
AcDbCircle
 10
13.97905559996477
 20
14.18672222632636
 30
0.0
 40
0.5338331184719482
100
AcDbArc
 50
162.8978588655937
 51
194.076966903236
  0
ARC
  5
530
330
1F
100
AcDbEntity
  8
0
100
AcDbCircle
 10
13.73004388226885
 20
14.26546693851524
 30
0.0
 40
0.2726828502757264
100
AcDbArc
 50
121.0924183587722
 51
163.3253300819781
  0
LINE
  5
531
102
{ACAD_REACTORS
330
767
102
}
330
1F
100
AcDbEntity
  8
0
100
AcDbLine
 10
13.58922499950935
 20
14.49897492358827
 30
0.0
 11
15.19766448203936
 21
14.49897492358827
 31
0.0
  0
LINE
  5
532
330
1F
100
AcDbEntity
  8
0
100
AcDbLine
 10
13.56844149935815
 20
13.90929444475309
 30
0.0
 11
16.82688746472056
 21
13.90929444475309
 31
0.0
  0
LINE
  5
533
102
{ACAD_REACTORS
330
767
102
}
330
1F
100
AcDbEntity
  8
0
100
AcDbLine
 10
14.01236747977031
 20
9.741089926620386
 30
0.0
 11
15.19766448203935
 21
9.741089926620386
 31
0.0
  0
LINE
  5
534
330
1F
100
AcDbEntity
  8
0
100
AcDbLine
 10
16.38557073804191
 20
10.05569729150359
 30
0.0
 11
14.0097582260368
 21
10.05569729150359
 31
0.0
  0
LINE
  5
535
330
1F
100
AcDbEntity
  8
0
100
AcDbLine
 10
15.19766448203936
 20
10.7944768068632
 30
0.0
 11
14.06689891426346
 21
10.79447680686321
 31
0.0
  0
LINE
  5
53B
330
1F
100
AcDbEntity
  8
0
100
AcDbLine
 10
16.32843004981528
 20
10.79447680686321
 30
0.0
 11
16.3341117623188
 21
10.79447680686321
 31
0.0
  0
ARC
  5
53C
330
1F
100
AcDbEntity
  8
0
100
AcDbCircle
 10
16.51435879680392
 20
12.76312995750647
 30
0.0
 40
0.8160069521801057
100
AcDbArc
 50
103.9508807952154
 51
153.2586299117673
  0
ARC
  5
53D
330
1F
100
AcDbEntity
  8
0
100
AcDbCircle
 10
20.02061534299173
 20
12.36012694226787
 30
0.0
 40
4.304451535498806
100
AcDbArc
 50
169.6928127897323
 51
183.5107274892305
  0
ARC
  5
53E
330
1F
100
AcDbEntity
  8
0
100
AcDbCircle
 10
28.26946028243007
 20
12.81638171536716
 30
0.0
 40
12.56585361554768
100
AcDbArc
 50
183.2840086772137
 51
189.0234327145206
  0
ARC
  5
53F
330
1F
100
AcDbEntity
  8
0
100
AcDbCircle
 10
16.07475262134643
 20
10.90864177958549
 30
0.0
 40
0.0670464979169482
100
AcDbArc
 50
281.9567305889084
 51
355.6964027509404
  0
ARC
  5
540
330
1F
100
AcDbEntity
  8
0
100
AcDbCircle
 10
15.98013752036442
 20
11.41341719469074
 30
0.0
 40
0.5805964653382191
100
AcDbArc
 50
257.9690685313348
 51
280.7711072069312
  0
ARC
  5
541
330
1F
100
AcDbEntity
  8
0
100
AcDbCircle
 10
14.42584073069668
 20
11.42592253436587
 30
0.0
 40
1.793508931565507
100
AcDbArc
 50
343.0687784428203
 51
3.883874952330497
  0
ARC
  5
542
330
1F
100
AcDbEntity
  8
0
100
AcDbCircle
 10
30.92486897955932
 20
11.99358909377243
 30
0.0
 40
14.71640376859601
100
AcDbArc
 50
178.7401359603015
 51
181.7374071564616
  0
ARC
  5
543
330
1F
100
AcDbEntity
  8
0
100
AcDbCircle
 10
18.54009016100838
 20
12.39516849161483
 30
0.0
 40
2.329373980798211
100
AcDbArc
 50
166.6638170930156
 51
181.9191708727047
  0
ARC
  5
544
330
1F
100
AcDbEntity
  8
0
100
AcDbCircle
 10
18.05397476419084
 20
12.32278903075363
 30
0.0
 40
1.88193821550331
100
AcDbArc
 50
147.8541162882725
 51
161.0970933430302
  0
ARC
  5
545
330
1F
100
AcDbEntity
  8
0
100
AcDbCircle
 10
16.22714932630292
 20
13.39658137823012
 30
0.0
 40
0.2443839677111884
100
AcDbArc
 50
342.7532718781348
 51
27.24418705966767
  0
ARC
  5
546
330
1F
100
AcDbEntity
  8
0
100
AcDbCircle
 10
16.30811909255728
 20
13.33343624720724
 30
0.0
 40
0.2218345952339852
100
AcDbArc
 50
52.08906256728177
 51
87.54335044254483
  0
ARC
  5
547
330
1F
100
AcDbEntity
  8
0
100
AcDbCircle
 10
16.19121354258992
 20
13.44968892805078
 30
0.0
 40
0.2811956969886132
100
AcDbArc
 50
353.5038501651087
 51
52.61515808011385
  0
ARC
  5
548
330
1F
100
AcDbEntity
  8
0
100
AcDbCircle
 10
16.23849718459482
 20
13.44414057827289
 30
0.0
 40
0.2601368766682329
100
AcDbArc
 50
61.66974175561628
 51
107.2703415691552
  0
LINE
  5
549
330
1F
100
AcDbEntity
  8
0
100
AcDbLine
 10
16.16126758879902
 20
13.6925490808164
 30
0.0
 11
15.81169885523571
 21
13.47451283426283
 31
0.0
  0
ARC
  5
54A
330
1F
100
AcDbEntity
  8
0
100
AcDbCircle
 10
16.16692007129726
 20
13.04141522772553
 30
0.0
 40
0.5601389551964708
100
AcDbArc
 50
129.358173570147
 51
150.841696085221
  0
ARC
  5
54B
330
1F
100
AcDbEntity
  8
0
100
AcDbCircle
 10
15.02777624354961
 20
12.86519060404969
 30
0.0
 40
0.733201910952102
100
AcDbArc
 50
76.60239123491257
 51
76.96135081689559
  0
ARC
  5
54E
330
1F
100
AcDbEntity
  8
0
100
AcDbCircle
 10
14.97423640993167
 20
12.91243300886734
 30
0.0
 40
0.8102287425509475
100
AcDbArc
 50
73.9927342659732
 51
74.32144884864617
  0
ARC
  5
54F
330
1F
100
AcDbEntity
  8
0
100
AcDbCircle
 10
-63.18804408222051
 20
16.23566967407834
 30
0.0
 40
78.8777468839035
100
AcDbArc
 50
356.9411396975282
 51
357.8505697704729
  0
ARC
  5
550
330
1F
100
AcDbEntity
  8
0
100
AcDbCircle
 10
9.579656406035756
 20
11.48799939017111
 30
0.0
 40
6.021800631444358
100
AcDbArc
 50
355.1896258460875
 51
5.13158049581245
  0
ARC
  5
551
330
1F
100
AcDbEntity
  8
0
100
AcDbCircle
 10
15.38885600789531
 20
10.9863442233903
 30
0.0
 40
0.1914192230862346
100
AcDbArc
 50
298.9493788319166
 51
359.0053833952314
  0
ARC
  5
552
330
1F
100
AcDbEntity
  8
0
100
AcDbCircle
 10
15.26709475732994
 20
51.26224158664543
 30
0.0
 40
40.44396666491439
100
AcDbArc
 50
269.9016401202314
 51
270.3037571552704
  0
ARC
  5
556
330
1F
100
AcDbEntity
  8
0
100
AcDbCircle
 10
17.41501245551535
 20
12.53447446450893
 30
0.0
 40
1.168263555338711
100
AcDbArc
 50
136.361563406832
 51
163.5792793948825
  0
ARC
  5
557
330
1F
100
AcDbEntity
  8
0
100
AcDbCircle
 10
21.5468227765564
 20
12.13857794103801
 30
0.0
 40
5.302380382136964
100
AcDbArc
 50
172.1287152037287
 51
181.8865860666375
  0
ARC
  5
558
330
1F
100
AcDbEntity
  8
0
100
AcDbCircle
 10
142.5149586527748
 20
15.71980391544402
 30
0.0
 40
126.3234870345391
100
AcDbArc
 50
181.7037404866685
 51
181.9978028405336
  0
ARC
  5
559
330
1F
100
AcDbEntity
  8
0
100
AcDbCircle
 10
51.92488302626715
 20
7.889911185196921
 30
0.0
 40
35.82085009191696
100
AcDbArc
 50
174.5115189356156
 51
175.2001841678717
  0
ARC
  5
55A
330
1F
100
AcDbEntity
  8
0
100
AcDbCircle
 10
16.16793067519685
 20
10.91957386138707
 30
0.0
 40
0.0696927770073417
100
AcDbArc
 50
232.2045749378736
 51
332.3280404216552
  0
ARC
  5
55B
330
1F
100
AcDbEntity
  8
0
100
AcDbCircle
 10
16.28568246062107
 20
10.93460984610826
 30
0.0
 40
0.0733917368868918
100
AcDbArc
 50
220.2313395894316
 51
345.8212604938199
  0
ARC
  5
55C
330
1F
100
AcDbEntity
  8
0
100
AcDbCircle
 10
16.49119868050942
 20
11.03315371699464
 30
0.0
 40
0.1778477432567488
100
AcDbArc
 50
174.9907901719013
 51
220.9327457389026
  0
ARC
  5
55D
330
1F
100
AcDbEntity
  8
0
100
AcDbCircle
 10
12.71857822806059
 20
11.34928825502326
 30
0.0
 40
3.607996477579628
100
AcDbArc
 50
355.2207771278032
 51
4.042667013208487
  0
ARC
  5
55E
330
1F
100
AcDbEntity
  8
0
100
AcDbCircle
 10
10.23811543942194
 20
11.87449556597667
 30
0.0
 40
6.085512157251329
100
AcDbArc
 50
357.4491125076909
 51
5.075545061203877
  0
ARC
  5
55F
330
1F
100
AcDbEntity
  8
0
100
AcDbCircle
 10
17.79401465539025
 20
12.45340217552372
 30
0.0
 40
1.494798331042956
100
AcDbArc
 50
162.9634023040365
 51
181.5535740867188
  0
ARC
  5
560
330
1F
100
AcDbEntity
  8
0
100
AcDbCircle
 10
17.88727351166835
 20
12.46904069273444
 30
0.0
 40
1.579948668668895
100
AcDbArc
 50
146.5162450286171
 51
164.4966793997852
  0
ARC
  5
563
330
1F
100
AcDbEntity
  8
0
100
AcDbCircle
 10
18.17528595131122
 20
12.46457314869501
 30
0.0
 40
2.199630351442802
100
AcDbArc
 50
158.3206202727438
 51
181.104273386095
  0
ARC
  5
564
330
1F
100
AcDbEntity
  8
0
100
AcDbCircle
 10
17.45037879739697
 20
12.54048505782406
 30
0.0
 40
1.510887007505141
100
AcDbArc
 50
150.8192050386125
 51
175.9421144714927
  0
ARC
  5
565
330
1F
100
AcDbEntity
  8
0
100
AcDbCircle
 10
49.91959765326865
 20
11.95430296814745
 30
0.0
 40
33.98338686209824
100
AcDbArc
 50
178.831358567739
 51
180.2267262552238
  0
ARC
  5
566
330
1F
100
AcDbEntity
  8
0
100
AcDbCircle
 10
33.02814260440485
 20
12.42018675896136
 30
0.0
 40
17.10220659152639
100
AcDbArc
 50
182.0117391572867
 51
184.6756266147318
  0
ARC
  5
567
330
1F
100
AcDbEntity
  8
0
100
AcDbCircle
 10
2.222175971469809
 20
11.28881645215828
 30
0.0
 40
13.76318105094454
100
AcDbArc
 50
358.9062862033991
 51
1.914873646173933
  0
ARC
  5
568
330
1F
100
AcDbEntity
  8
0
100
AcDbCircle
 10
-53.60308519746721
 20
11.91939679531868
 30
0.0
 40
69.58096587892988
100
AcDbArc
 50
359.8594478359562
 51
0.4140171322647378
  0
LINE
  5
56C
330
1F
100
AcDbEntity
  8
0
100
AcDbLine
 10
16.3341117623188
 20
10.79447680686321
 30
0.0
 11
14.06121720175991
 21
10.79447680686321
 31
0.0
  0
ARC
  5
56D
330
1F
100
AcDbEntity
  8
0
100
AcDbCircle
 10
13.88097016727478
 20
12.76312995750647
 30
0.0
 40
0.8160069521801057
100
AcDbArc
 50
26.74137008823258
 51
76.04911920478437
  0
ARC
  5
56E
330
1F
100
AcDbEntity
  8
0
100
AcDbCircle
 10
10.37471362108698
 20
12.36012694226788
 30
0.0
 40
4.304451535498806
100
AcDbArc
 50
356.4892725107693
 51
10.30718721026765
  0
ARC
  5
56F
330
1F
100
AcDbEntity
  8
0
100
AcDbCircle
 10
2.12586868164865
 20
12.81638171536717
 30
0.0
 40
12.56585361554768
100
AcDbArc
 50
350.9765672854793
 51
356.7159913227862
  0
ARC
  5
570
330
1F
100
AcDbEntity
  8
0
100
AcDbCircle
 10
14.3205763427323
 20
10.90864177958549
 30
0.0
 40
0.0670464979169482
100
AcDbArc
 50
184.3035972490595
 51
258.0432694110915
  0
ARC
  5
571
330
1F
100
AcDbEntity
  8
0
100
AcDbCircle
 10
14.41519144371428
 20
11.41341719469074
 30
0.0
 40
0.5805964653382191
100
AcDbArc
 50
259.2288927930685
 51
282.030931468665
  0
ARC
  5
572
330
1F
100
AcDbEntity
  8
0
100
AcDbCircle
 10
15.96948823338203
 20
11.42592253436587
 30
0.0
 40
1.793508931565507
100
AcDbArc
 50
176.1161250476693
 51
196.9312215571793
  0
ARC
  5
573
330
1F
100
AcDbEntity
  8
0
100
AcDbCircle
 10
-0.5295400154805892
 20
11.99358909377245
 30
0.0
 40
14.71640376859601
100
AcDbArc
 50
358.2625928435383
 51
1.259864039698435
  0
ARC
  5
574
330
1F
100
AcDbEntity
  8
0
100
AcDbCircle
 10
11.85523880307034
 20
12.39516849161484
 30
0.0
 40
2.329373980798211
100
AcDbArc
 50
358.0808291272952
 51
13.33618290698425
  0
ARC
  5
575
330
1F
100
AcDbEntity
  8
0
100
AcDbCircle
 10
12.34135419988787
 20
12.32278903075363
 30
0.0
 40
1.88193821550331
100
AcDbArc
 50
18.90290665696982
 51
32.14588371172736
  0
ARC
  5
576
330
1F
100
AcDbEntity
  8
0
100
AcDbCircle
 10
14.16817963777579
 20
13.39658137823012
 30
0.0
 40
0.2443839677111884
100
AcDbArc
 50
152.7558129403323
 51
197.2467281218651
  0
ARC
  5
577
330
1F
100
AcDbEntity
  8
0
100
AcDbCircle
 10
14.08720987152144
 20
13.33343624720724
 30
0.0
 40
0.2218345952339852
100
AcDbArc
 50
92.45664955745516
 51
127.9109374327182
  0
ARC
  5
578
330
1F
100
AcDbEntity
  8
0
100
AcDbCircle
 10
14.2041154214888
 20
13.44968892805078
 30
0.0
 40
0.2811956969886132
100
AcDbArc
 50
127.3848419198861
 51
186.4961498348912
  0
ARC
  5
579
330
1F
100
AcDbEntity
  8
0
100
AcDbCircle
 10
14.15683177948389
 20
13.44414057827289
 30
0.0
 40
0.2601368766682329
100
AcDbArc
 50
72.72965843084462
 51
118.3302582443835
  0
LINE
  5
57A
330
1F
100
AcDbEntity
  8
0
100
AcDbLine
 10
14.23406137527969
 20
13.6925490808164
 30
0.0
 11
14.583630108843
 21
13.47451283426283
 31
0.0
  0
ARC
  5
57B
330
1F
100
AcDbEntity
  8
0
100
AcDbCircle
 10
14.22840889278144
 20
13.04141522772553
 30
0.0
 40
0.5601389551964708
100
AcDbArc
 50
29.15830391477894
 51
50.64182642985285
  0
ARC
  5
57C
330
1F
100
AcDbEntity
  8
0
100
AcDbCircle
 10
15.3675527205291
 20
12.86519060404969
 30
0.0
 40
0.733201910952102
100
AcDbArc
 50
103.0386491831043
 51
145.8016402382097
  0
ARC
  5
57D
330
1F
100
AcDbEntity
  8
0
100
AcDbCircle
 10
15.42109255414704
 20
12.91243300886734
 30
0.0
 40
0.8102287425509475
100
AcDbArc
 50
105.6785511513538
 51
150.2624904174663
  0
ARC
  5
57E
330
1F
100
AcDbEntity
  8
0
100
AcDbCircle
 10
93.58337304629925
 20
16.23566967407831
 30
0.0
 40
78.8777468839035
100
AcDbArc
 50
182.1494302295272
 51
183.0588603024719
  0
ARC
  5
57F
330
1F
100
AcDbEntity
  8
0
100
AcDbCircle
 10
20.81567255804296
 20
11.48799939017109
 30
0.0
 40
6.021800631444358
100
AcDbArc
 50
174.8684195041875
 51
184.8103741539125
  0
ARC
  5
580
330
1F
100
AcDbEntity
  8
0
100
AcDbCircle
 10
15.0064729561834
 20
10.9863442233903
 30
0.0
 40
0.1914192230862346
100
AcDbArc
 50
180.9946166047684
 51
241.0506211680833
  0
ARC
  5
581
330
1F
100
AcDbEntity
  8
0
100
AcDbCircle
 10
15.12823420674878
 20
51.26224158664543
 30
0.0
 40
40.44396666491439
100
AcDbArc
 50
269.6962428447294
 51
270.0983598797683
  0
ARC
  5
585
330
1F
100
AcDbEntity
  8
0
100
AcDbCircle
 10
12.98031650856335
 20
12.53447446450893
 30
0.0
 40
1.168263555338711
100
AcDbArc
 50
16.42072060511751
 51
43.63843659316794
  0
ARC
  5
586
330
1F
100
AcDbEntity
  8
0
100
AcDbCircle
 10
8.848506187522314
 20
12.13857794103801
 30
0.0
 40
5.302380382136964
100
AcDbArc
 50
358.1134139333625
 51
7.871284796271067
  0
ARC
  5
587
330
1F
100
AcDbEntity
  8
0
100
AcDbCircle
 10
-112.119629688696
 20
15.71980391544407
 30
0.0
 40
126.3234870345391
100
AcDbArc
 50
358.0021971594663
 51
358.2962595133315
  0
ARC
  5
588
330
1F
100
AcDbEntity
  8
0
100
AcDbCircle
 10
-21.52955406218843
 20
7.889911185196937
 30
0.0
 40
35.82085009191696
100
AcDbArc
 50
4.799815832128276
 51
5.488481064384368
  0
ARC
  5
589
330
1F
100
AcDbEntity
  8
0
100
AcDbCircle
 10
14.22739828888186
 20
10.91957386138707
 30
0.0
 40
0.0696927770073417
100
AcDbArc
 50
207.6719595783447
 51
307.7954250621265
  0
ARC
  5
58A
330
1F
100
AcDbEntity
  8
0
100
AcDbCircle
 10
14.10964650345764
 20
10.93460984610826
 30
0.0
 40
0.0733917368868918
100
AcDbArc
 50
194.17873950618
 51
319.7686604105683
  0
ARC
  5
58B
330
1F
100
AcDbEntity
  8
0
100
AcDbCircle
 10
13.90413028356929
 20
11.03315371699464
 30
0.0
 40
0.1778477432567488
100
AcDbArc
 50
319.0672542610973
 51
5.009209828098557
  0
ARC
  5
58C
330
1F
100
AcDbEntity
  8
0
100
AcDbCircle
 10
17.67675073601812
 20
11.34928825502326
 30
0.0
 40
3.607996477579628
100
AcDbArc
 50
175.9573329867915
 51
184.7792228721967
  0
ARC
  5
58D
330
1F
100
AcDbEntity
  8
0
100
AcDbCircle
 10
20.15721352465676
 20
11.87449556597665
 30
0.0
 40
6.085512157251329
100
AcDbArc
 50
174.9244549387961
 51
182.5508874923089
  0
ARC
  5
58E
330
1F
100
AcDbEntity
  8
0
100
AcDbCircle
 10
12.60131430868846
 20
12.45340217552373
 30
0.0
 40
1.494798331042956
100
AcDbArc
 50
358.4464259132811
 51
17.0365976959635
  0
ARC
  5
58F
330
1F
100
AcDbEntity
  8
0
100
AcDbCircle
 10
12.50805545241037
 20
12.46904069273445
 30
0.0
 40
1.579948668668895
100
AcDbArc
 50
15.50332060021455
 51
33.48375497138288
  0
ARC
  5
592
330
1F
100
AcDbEntity
  8
0
100
AcDbCircle
 10
12.22004301276751
 20
12.46457314869503
 30
0.0
 40
2.199630351442802
100
AcDbArc
 50
358.8957266139049
 51
21.67937972725617
  0
ARC
  5
593
330
1F
100
AcDbEntity
  8
0
100
AcDbCircle
 10
12.94495016668174
 20
12.54048505782407
 30
0.0
 40
1.510887007505141
100
AcDbArc
 50
4.057885528507219
 51
29.18079496138743
  0
ARC
  5
594
330
1F
100
AcDbEntity
  8
0
100
AcDbCircle
 10
-19.52426868918992
 20
11.95430296814746
 30
0.0
 40
33.98338686209824
100
AcDbArc
 50
359.7732737447761
 51
1.168641432260858
  0
ARC
  5
595
330
1F
100
AcDbEntity
  8
0
100
AcDbCircle
 10
-2.632813640326112
 20
12.42018675896136
 30
0.0
 40
17.10220659152639
100
AcDbArc
 50
355.3243733852682
 51
357.9882608427131
  0
ARC
  5
596
330
1F
100
AcDbEntity
  8
0
100
AcDbCircle
 10
28.17315299260893
 20
11.28881645215828
 30
0.0
 40
13.76318105094454
100
AcDbArc
 50
178.085126353826
 51
181.0937137966006
  0
ARC
  5
597
330
1F
100
AcDbEntity
  8
0
100
AcDbCircle
 10
83.99841416154592
 20
11.91939679531865
 30
0.0
 40
69.58096587892988
100
AcDbArc
 50
179.5859828677351
 51
180.1405521640438
  0
ARC
  5
598
330
1F
100
AcDbEntity
  8
0
100
AcDbCircle
 10
32.21831055477881
 20
12.24070542612842
 30
0.0
 40
17.05629664447395
100
AcDbArc
 50
177.2388831343407
 51
183.3963673948002
  0
ARC
  5
5E3
330
1F
100
AcDbEntity
  8
0
100
AcDbCircle
 10
13.04851589696561
 20
12.71091514583375
 30
0.0
 40
1.144713394216364
100
AcDbArc
 50
40.19408420661426
 51
62.26923026666648
  0
LINE
  5
5E5
330
1F
100
AcDbEntity
  8
0
100
AcDbLine
 10
16.80610396456936
 20
14.49897492358827
 30
0.0
 11
15.19766448203936
 21
14.49897492358827
 31
0.0
  0
LINE
  5
5E6
102
{ACAD_REACTORS
330
79B
102
}
330
1F
100
AcDbEntity
  8
0
100
AcDbLine
 10
16.3829614843084
 20
9.741089926620386
 30
0.0
 11
15.19766448203936
 21
9.741089926620386
 31
0.0
  0
ARC
  5
5E7
330
1F
100
AcDbEntity
  8
0
100
AcDbCircle
 10
19.76075431388446
 20
11.54453651764962
 30
0.0
 40
5.743046132631889
100
AcDbArc
 50
186.5962383548943
 51
187.5044453667289
  0
ARC
  5
5E8
330
1F
100
AcDbEntity
  8
0
100
AcDbCircle
 10
10.63457465019427
 20
11.54453651764962
 30
0.0
 40
5.743046132631889
100
AcDbArc
 50
353.8780741020694
 51
4.854738469765297
  0
ARC
  5
5E9
330
1F
100
AcDbEntity
  8
0
100
AcDbCircle
 10
15.02777624354961
 20
12.86519060404969
 30
0.0
 40
0.733201910952102
100
AcDbArc
 50
34.19835976179029
 51
76.96135081689559
  0
ARC
  5
5EA
330
1F
100
AcDbEntity
  8
0
100
AcDbCircle
 10
14.97423640993167
 20
12.91243300886734
 30
0.0
 40
0.8102287425509475
100
AcDbArc
 50
29.73750958253356
 51
74.32144884864628
  0
ARC
  5
5EB
330
1F
100
AcDbEntity
  8
0
100
AcDbCircle
 10
-1.82298159070008
 20
12.24070542612842
 30
0.0
 40
17.05629664447395
100
AcDbArc
 50
356.6036326051998
 51
2.761116865659245
  0
LINE
  5
700
330
1F
100
AcDbEntity
  8
0
100
AcDbLine
 10
22.35187708170231
 20
9.741089984437259
 30
0.0
 11
22.35448633543583
 21
10.05569734932047
 31
0.0
  0
ARC
  5
701
330
1F
100
AcDbEntity
  8
0
100
AcDbCircle
 10
22.10745313068291
 20
10.40819016014485
 30
0.0
 40
0.4304376678839527
100
AcDbArc
 50
305.0234519979658
 51
63.82198005234966
  0
ARC
  5
702
330
1F
100
AcDbEntity
  8
0
100
AcDbCircle
 10
16.60349024758818
 20
11.54453657546649
 30
0.0
 40
5.743046132631889
100
AcDbArc
 50
352.495554633271
 51
353.4037616451056
  0
ARC
  5
703
330
1F
100
AcDbEntity
  8
0
100
AcDbCircle
 10
16.60349024758818
 20
11.54453657546649
 30
0.0
 40
5.743046132631889
100
AcDbArc
 50
353.8780741020694
 51
4.854738469765325
  0
ARC
  5
704
330
1F
100
AcDbEntity
  8
0
100
AcDbCircle
 10
25.35232035651136
 20
12.27834643423114
 30
0.0
 40
3.03651345050003
100
AcDbArc
 50
168.9866956712483
 51
184.680490407911
  0
ARC
  5
705
330
1F
100
AcDbEntity
  8
0
100
AcDbCircle
 10
23.41499597237956
 20
12.60963435449557
 30
0.0
 40
1.072521675796863
100
AcDbArc
 50
124.1637145676136
 51
166.5866201655568
  0
ARC
  5
706
330
1F
100
AcDbEntity
  8
0
100
AcDbCircle
 10
22.65642247552455
 20
13.7593028353054
 30
0.0
 40
0.3052673463658524
100
AcDbArc
 50
300.7953723685042
 51
323.691675960141
  0
ARC
  5
707
102
{ACAD_REACTORS
330
7F4
102
}
330
1F
100
AcDbEntity
  8
0
100
AcDbCircle
 10
22.81798547184233
 20
13.60973928067829
 30
0.0
 40
0.0900125073133861
100
AcDbArc
 50
339.7231132963881
 51
35.39762305805634
  0
ARC
  5
708
330
1F
100
AcDbEntity
  8
0
100
AcDbCircle
 10
22.56801963267478
 20
13.22463954667925
 30
0.0
 40
0.5438076081243911
100
AcDbArc
 50
53.51696601712816
 51
66.70561960526389
  0
LINE
  5
709
330
1F
100
AcDbEntity
  8
0
100
AcDbLine
 10
22.78307129813305
 20
13.72411877130985
 30
0.0
 11
22.79580306211449
 21
13.90929450256996
 31
0.0
  0
ARC
  5
70A
330
1F
100
AcDbEntity
  8
0
100
AcDbCircle
 10
22.6665358339693
 20
14.11589485107285
 30
0.0
 40
0.2437082687843274
100
AcDbArc
 50
302.0336949967878
 51
345.9864759459322
  0
ARC
  5
70B
330
1F
100
AcDbEntity
  8
0
100
AcDbCircle
 10
22.38518896150787
 20
14.18672228414323
 30
0.0
 40
0.5338331184719482
100
AcDbArc
 50
345.923033096764
 51
17.10214113440614
  0
ARC
  5
70C
330
1F
100
AcDbEntity
  8
0
100
AcDbCircle
 10
22.6342006792038
 20
14.26546699633211
 30
0.0
 40
0.2726828502757264
100
AcDbArc
 50
16.67466991802184
 51
58.90758164122776
  0
ARC
  5
70E
330
1F
100
AcDbEntity
  8
0
100
AcDbCircle
 10
22.48327439419784
 20
12.76313001532334
 30
0.0
 40
0.8160069521801057
100
AcDbArc
 50
103.9508807952154
 51
153.2586299117673
  0
ARC
  5
70F
330
1F
100
AcDbEntity
  8
0
100
AcDbCircle
 10
25.98953094038565
 20
12.36012700008475
 30
0.0
 40
4.304451535498806
100
AcDbArc
 50
169.6928127897323
 51
183.5107274892305
  0
ARC
  5
710
330
1F
100
AcDbEntity
  8
0
100
AcDbCircle
 10
34.23837587982398
 20
12.81638177318405
 30
0.0
 40
12.56585361554768
100
AcDbArc
 50
183.2840086772137
 51
189.0234327145206
  0
ARC
  5
711
330
1F
100
AcDbEntity
  8
0
100
AcDbCircle
 10
22.04366821874033
 20
10.90864183740237
 30
0.0
 40
0.0670464979169482
100
AcDbArc
 50
281.9567305889083
 51
355.6964027509404
  0
ARC
  5
712
330
1F
100
AcDbEntity
  8
0
100
AcDbCircle
 10
21.94905311775833
 20
11.41341725250762
 30
0.0
 40
0.5805964653382191
100
AcDbArc
 50
257.9690685313347
 51
280.7711072069312
  0
ARC
  5
713
330
1F
100
AcDbEntity
  8
0
100
AcDbCircle
 10
20.3947563280906
 20
11.42592259218274
 30
0.0
 40
1.793508931565507
100
AcDbArc
 50
343.0687784428203
 51
3.883874952330487
  0
ARC
  5
714
330
1F
100
AcDbEntity
  8
0
100
AcDbCircle
 10
36.89378457695324
 20
11.99358915158931
 30
0.0
 40
14.71640376859601
100
AcDbArc
 50
178.7401359603015
 51
181.7374071564616
  0
ARC
  5
715
330
1F
100
AcDbEntity
  8
0
100
AcDbCircle
 10
24.50900575840229
 20
12.39516854943171
 30
0.0
 40
2.329373980798211
100
AcDbArc
 50
166.6638170930156
 51
181.9191708727047
  0
ARC
  5
716
330
1F
100
AcDbEntity
  8
0
100
AcDbCircle
 10
24.02289036158476
 20
12.3227890885705
 30
0.0
 40
1.88193821550331
100
AcDbArc
 50
147.8541162882725
 51
161.0970933430301
  0
ARC
  5
717
330
1F
100
AcDbEntity
  8
0
100
AcDbCircle
 10
22.19606492369683
 20
13.396581436047
 30
0.0
 40
0.2443839677111884
100
AcDbArc
 50
342.7532718781348
 51
27.24418705966769
  0
ARC
  5
718
330
1F
100
AcDbEntity
  8
0
100
AcDbCircle
 10
22.27703468995119
 20
13.33343630502411
 30
0.0
 40
0.2218345952339852
100
AcDbArc
 50
52.08906256728177
 51
87.54335044254476
  0
ARC
  5
719
330
1F
100
AcDbEntity
  8
0
100
AcDbCircle
 10
22.16012913998384
 20
13.44968898586765
 30
0.0
 40
0.2811956969886132
100
AcDbArc
 50
353.5038501651087
 51
52.61515808011384
  0
ARC
  5
71A
330
1F
100
AcDbEntity
  8
0
100
AcDbCircle
 10
22.20741278198874
 20
13.44414063608976
 30
0.0
 40
0.2601368766682329
100
AcDbArc
 50
61.66974175561636
 51
107.2703415691552
  0
LINE
  5
71B
330
1F
100
AcDbEntity
  8
0
100
AcDbLine
 10
22.13018318619294
 20
13.69254913863329
 30
0.0
 11
21.78061445262963
 21
13.4745128920797
 31
0.0
  0
ARC
  5
71C
330
1F
100
AcDbEntity
  8
0
100
AcDbCircle
 10
22.13583566869119
 20
13.0414152855424
 30
0.0
 40
0.5601389551964708
100
AcDbArc
 50
129.358173570147
 51
150.8416960852211
  0
ARC
  5
71D
330
1F
100
AcDbEntity
  8
0
100
AcDbCircle
 10
20.99669184094353
 20
12.86519066186655
 30
0.0
 40
0.733201910952102
100
AcDbArc
 50
76.60239123491257
 51
76.96135081689559
  0
ARC
  5
71E
330
1F
100
AcDbEntity
  8
0
100
AcDbCircle
 10
20.94315200732558
 20
12.91243306668421
 30
0.0
 40
0.8102287425509475
100
AcDbArc
 50
73.99273426597325
 51
74.32144884864611
  0
ARC
  5
71F
330
1F
100
AcDbEntity
  8
0
100
AcDbCircle
 10
-57.21912848482659
 20
16.23566973189521
 30
0.0
 40
78.8777468839035
100
AcDbArc
 50
356.941139697528
 51
357.8505697704729
  0
ARC
  5
720
330
1F
100
AcDbEntity
  8
0
100
AcDbCircle
 10
15.54857200342968
 20
11.48799944798798
 30
0.0
 40
6.021800631444358
100
AcDbArc
 50
355.1896258460875
 51
5.13158049581246
  0
ARC
  5
721
330
1F
100
AcDbEntity
  8
0
100
AcDbCircle
 10
21.35777160528923
 20
10.98634428120717
 30
0.0
 40
0.1914192230862346
100
AcDbArc
 50
298.9493788319167
 51
359.0053833952313
  0
ARC
  5
722
330
1F
100
AcDbEntity
  8
0
100
AcDbCircle
 10
21.23601035472386
 20
51.26224164446231
 30
0.0
 40
40.44396666491439
100
AcDbArc
 50
269.9016401202314
 51
270.3037571552704
  0
ARC
  5
726
330
1F
100
AcDbEntity
  8
0
100
AcDbCircle
 10
23.38392805290927
 20
12.5344745223258
 30
0.0
 40
1.168263555338711
100
AcDbArc
 50
136.361563406832
 51
163.5792793948823
  0
ARC
  5
727
330
1F
100
AcDbEntity
  8
0
100
AcDbCircle
 10
27.51573837395032
 20
12.13857799885488
 30
0.0
 40
5.302380382136964
100
AcDbArc
 50
172.1287152037287
 51
181.8865860666375
  0
ARC
  5
728
330
1F
100
AcDbEntity
  8
0
100
AcDbCircle
 10
148.4838742501686
 20
15.71980397326089
 30
0.0
 40
126.3234870345391
100
AcDbArc
 50
181.7037404866685
 51
181.9978028405336
  0
ARC
  5
729
330
1F
100
AcDbEntity
  8
0
100
AcDbCircle
 10
57.89379862366105
 20
7.889911243013794
 30
0.0
 40
35.82085009191696
100
AcDbArc
 50
174.5115189356156
 51
175.2001841678717
  0
ARC
  5
72A
330
1F
100
AcDbEntity
  8
0
100
AcDbCircle
 10
22.13684627259077
 20
10.91957391920395
 30
0.0
 40
0.0696927770073417
100
AcDbArc
 50
232.2045749378736
 51
332.3280404216553
  0
ARC
  5
72B
330
1F
100
AcDbEntity
  8
0
100
AcDbCircle
 10
22.25459805801498
 20
10.93460990392513
 30
0.0
 40
0.0733917368868918
100
AcDbArc
 50
220.2313395894314
 51
345.8212604938199
  0
ARC
  5
72C
330
1F
100
AcDbEntity
  8
0
100
AcDbCircle
 10
22.46011427790334
 20
11.03315377481151
 30
0.0
 40
0.1778477432567488
100
AcDbArc
 50
174.9907901719013
 51
220.9327457389026
  0
ARC
  5
72D
330
1F
100
AcDbEntity
  8
0
100
AcDbCircle
 10
18.6874938254545
 20
11.34928831284013
 30
0.0
 40
3.607996477579628
100
AcDbArc
 50
355.2207771278032
 51
4.042667013208459
  0
ARC
  5
72E
330
1F
100
AcDbEntity
  8
0
100
AcDbCircle
 10
16.20703103681586
 20
11.87449562379354
 30
0.0
 40
6.085512157251329
100
AcDbArc
 50
357.4491125076909
 51
5.075545061203887
  0
ARC
  5
72F
330
1F
100
AcDbEntity
  8
0
100
AcDbCircle
 10
23.76293025278417
 20
12.4534022333406
 30
0.0
 40
1.494798331042956
100
AcDbArc
 50
162.9634023040365
 51
181.5535740867188
  0
ARC
  5
730
330
1F
100
AcDbEntity
  8
0
100
AcDbCircle
 10
23.85618910906227
 20
12.46904075055131
 30
0.0
 40
1.579948668668895
100
AcDbArc
 50
146.5162450286171
 51
164.4966793997852
  0
ARC
  5
731
330
1F
100
AcDbEntity
  8
0
100
AcDbCircle
 10
24.14420154870514
 20
12.4645732065119
 30
0.0
 40
2.199630351442802
100
AcDbArc
 50
158.3206202727438
 51
181.104273386095
  0
ARC
  5
732
330
1F
100
AcDbEntity
  8
0
100
AcDbCircle
 10
23.41929439479089
 20
12.54048511564094
 30
0.0
 40
1.510887007505141
100
AcDbArc
 50
150.8192050386125
 51
175.9421144714928
  0
ARC
  5
733
330
1F
100
AcDbEntity
  8
0
100
AcDbCircle
 10
55.88851325066255
 20
11.95430302596432
 30
0.0
 40
33.98338686209824
100
AcDbArc
 50
178.831358567739
 51
180.2267262552237
  0
ARC
  5
734
330
1F
100
AcDbEntity
  8
0
100
AcDbCircle
 10
38.99705820179875
 20
12.42018681677822
 30
0.0
 40
17.10220659152639
100
AcDbArc
 50
182.0117391572867
 51
184.6756266147318
  0
ARC
  5
735
330
1F
100
AcDbEntity
  8
0
100
AcDbCircle
 10
8.191091568863729
 20
11.28881650997516
 30
0.0
 40
13.76318105094454
100
AcDbArc
 50
358.9062862033991
 51
1.914873646173914
  0
ARC
  5
736
330
1F
100
AcDbEntity
  8
0
100
AcDbCircle
 10
-47.6341696000733
 20
11.91939685313555
 30
0.0
 40
69.58096587892988
100
AcDbArc
 50
359.8594478359562
 51
0.4140171322647087
  0
LINE
  5
738
330
1F
100
AcDbEntity
  8
0
100
AcDbLine
 10
22.7750195619633
 20
14.49897498140514
 30
0.0
 11
21.16658007943328
 21
14.49897498140514
 31
0.0
  0
LINE
  5
739
330
1F
100
AcDbEntity
  8
0
100
AcDbLine
 10
22.35187708170231
 20
9.741089984437259
 30
0.0
 11
21.16658007943328
 21
9.741089984437259
 31
0.0
  0
ARC
  5
73A
330
1F
100
AcDbEntity
  8
0
100
AcDbCircle
 10
20.99669184094353
 20
12.86519066186655
 30
0.0
 40
0.733201910952102
100
AcDbArc
 50
34.19835976179033
 51
76.96135081689559
  0
ARC
  5
73B
330
1F
100
AcDbEntity
  8
0
100
AcDbCircle
 10
20.9431520073256
 20
12.91243306668421
 30
0.0
 40
0.8102287425509475
100
AcDbArc
 50
29.73750958253356
 51
74.32144884864633
  0
ARC
  5
73C
330
1F
100
AcDbEntity
  8
0
100
AcDbCircle
 10
4.145934006693833
 20
12.24070548394528
 30
0.0
 40
17.05629664447395
100
AcDbArc
 50
356.6036326051998
 51
2.761116865659274
  0
LINE
  5
73D
102
{ACAD_REACTORS
330
7F4
102
}
330
1F
100
AcDbEntity
  8
0
100
AcDbLine
 10
21.16658007943328
 20
14.49897498140514
 30
0.0
 11
21.16658007943328
 21
9.741089984437259
 31
0.0
  0
LINE
  5
73E
330
1F
100
AcDbEntity
  8
0
100
AcDbLine
 10
22.79580306211447
 20
13.90929450256996
 30
0.0
 11
21.16658007943328
 21
13.90929450256996
 31
0.0
  0
LINE
  5
73F
330
1F
100
AcDbEntity
  8
0
100
AcDbLine
 10
22.29734564720917
 20
10.79447686468006
 30
0.0
 11
21.16658007943328
 21
10.79447686468006
 31
0.0
  0
LINE
  5
740
330
1F
100
AcDbEntity
  8
0
100
AcDbLine
 10
22.35448633543583
 20
10.05569734932047
 30
0.0
 11
21.16658007943328
 21
10.05569734932047
 31
0.0
  0
LINE
  5
741
330
1F
100
AcDbEntity
  8
0
100
AcDbLine
 10
22.78307129813305
 20
13.72411877130985
 30
0.0
 11
21.16658007943328
 21
13.72411877130985
 31
0.0
  0
LINE
  5
742
330
1F
100
AcDbEntity
  8
0
100
AcDbLine
 10
13.58117103103186
 20
13.7241511810453
 30
0.0
 11
16.81415793304686
 21
13.7241511810453
 31
0.0
  0
ARC
  5
743
330
1F
100
AcDbEntity
  8
0
100
AcDbCircle
 10
17.3468130671131
 20
12.71091514583375
 30
0.0
 40
1.144713394216364
100
AcDbArc
 50
117.7307697333335
 51
139.8059157933857
  0
ARC
  5
74B
330
1F
100
AcDbEntity
  8
0
100
AcDbCircle
 10
23.31572643219932
 20
12.7108827360983
 30
0.0
 40
1.144713394216364
100
AcDbArc
 50
117.7307697333335
 51
139.8059157933855
  0
DIMENSION
  5
74E
102
{ACAD_XDICTIONARY
360
75C
102
}
102
{ACAD_REACTORS
330
767
102
}
330
1F
100
AcDbEntity
  8
0
100
AcDbDimension
280
     0
  2
*D8
 10
10.70173479215348
 20
9.741089926620388
 30
0.0
 11
10.70173479215348
 21
12.12003242510433
 31
0.0
 70
    32
 71
     5
 42
4.757884996967884
 73
     0
 74
     0
 75
     0
  3
New OWP
100
AcDbAlignedDimension
 13
13.58922499950935
 23
14.49897492358827
 33
0.0
 14
14.01236747977031
 24
9.741089926620386
 34
0.0
 50
90.0
100
AcDbRotatedDimension
  0
DIMENSION
  5
782
102
{ACAD_XDICTIONARY
360
790
102
}
102
{ACAD_REACTORS
330
79B
102
}
330
1F
100
AcDbEntity
  8
0
100
AcDbDimension
280
     0
  2
*D10
 10
16.3829614843084
 20
7.658332872879205
 30
0.0
 11
15.19766448203936
 21
7.658332872879205
 31
0.0
 70
    32
 71
     5
 42
2.370594004538087
 73
     0
 74
     0
 75
     0
  3
New OWP
100
AcDbAlignedDimension
 13
14.01236747977031
 23
9.741089926620386
 33
0.0
 14
16.3829614843084
 24
9.741089926620386
 34
0.0
100
AcDbRotatedDimension
  0
DIMENSION
  5
7C1
102
{ACAD_XDICTIONARY
360
7CF
102
}
102
{ACAD_REACTORS
330
7DA
102
}
330
1F
100
AcDbEntity
  8
0
100
AcDbDimension
280
     0
  2
*D11
 10
16.9390823817618
 20
17.6233081239733
 30
0.0
 11
15.19766448203936
 21
17.6233081239733
 31
0.0
 70
    32
 71
     5
 42
3.482835799444892
 73
     0
 74
     0
 75
     0
  3
New OWP
100
AcDbAlignedDimension
 13
13.45624658231691
 23
13.60973922286141
 33
0.0
 14
16.9390823817618
 24
13.60973922286141
 34
0.0
100
AcDbRotatedDimension
  0
DIMENSION
  5
7DB
102
{ACAD_XDICTIONARY
360
7E9
102
}
102
{ACAD_REACTORS
330
7F4
102
}
330
1F
100
AcDbEntity
  8
0
100
AcDbDimension
280
     0
  2
*D12
 10
22.90799797915572
 20
17.6233081239733
 30
0.0
 11
24.30463736069278
 21
17.6233081239733
 31
0.0
 70
    32
 71
     5
 42
1.741417899722438
 73
     0
 74
     0
 75
     0
  3
New OWP
100
AcDbAlignedDimension
 13
21.16658007943328
 23
14.49897498140514
 33
0.0
 14
22.90799797915572
 24
13.60973928067829
 34
0.0
100
AcDbRotatedDimension
  0
ENDSEC
  0
SECTION
  2
OBJECTS
  0
DICTIONARY
  5
C
330
0
100
AcDbDictionary
281
     1
  3
ACAD_ASSOCPERSSUBENTMANAGER
350
1BC
  3
ACAD_BACKGROUND
350
1B8
  3
ACAD_COLOR
350
73
  3
ACAD_GROUP
350
D
  3
ACAD_LAYOUT
350
1A
  3
ACAD_MATERIAL
350
72
  3
ACAD_MLEADERSTYLE
350
D7
  3
ACAD_MLINESTYLE
350
17
  3
ACAD_PERSUBENTMGR
350
1BD
  3
ACAD_PLOTSETTINGS
350
19
  3
ACAD_PLOTSTYLENAME
350
E
  3
ACAD_SCALELIST
350
B6
  3
ACAD_TABLESTYLE
350
86
  3
ACAD_VISUALSTYLE
350
99
  3
ACDB_RECOMPOSE_DATA
350
800
  3
AcDbVariableDictionary
350
66
  0
DICTIONARY
  5
E6
330
10
100
AcDbDictionary
280
     1
281
     1
  0
DICTIONARY
  5
15D
330
1F
100
AcDbDictionary
280
     1
281
     1
  3
ACAD_SORTENTS
360
362
  0
DICTIONARY
  5
75C
330
74E
100
AcDbDictionary
280
     1
281
     1
  3
ACAD_DIMASSOC
360
767
  0
DICTIONARY
  5
790
330
782
100
AcDbDictionary
280
     1
281
     1
  3
ACAD_DIMASSOC
360
79B
  0
DICTIONARY
  5
7CF
330
7C1
100
AcDbDictionary
280
     1
281
     1
  3
ACAD_DIMASSOC
360
7DA
  0
DICTIONARY
  5
7E9
330
7DB
100
AcDbDictionary
280
     1
281
     1
  3
ACAD_DIMASSOC
360
7F4
  0
ACDBASSOCPERSSUBENTMANAGER
  5
1BC
102
{ACAD_REACTORS
330
C
102
}
330
C
100
AcDbAssocPersSubentManager
 90
        1
 90
        3
 90
        0
 90
        2
 90
        4
 90
        0
 90
        0
 90
        0
290
     0
  0
DICTIONARY
  5
1B8
102
{ACAD_REACTORS
330
C
102
}
330
C
100
AcDbDictionary
281
     1
  0
DICTIONARY
  5
73
102
{ACAD_REACTORS
330
C
102
}
330
C
100
AcDbDictionary
281
     1
  0
DICTIONARY
  5
D
102
{ACAD_REACTORS
330
C
102
}
330
C
100
AcDbDictionary
281
     1
  0
DICTIONARY
  5
1A
102
{ACAD_REACTORS
330
C
102
}
330
C
100
AcDbDictionary
281
     1
  3
Layout1
350
59
  3
Layout2
350
5E
  3
Model
350
22
  0
DICTIONARY
  5
72
102
{ACAD_REACTORS
330
C
102
}
330
C
100
AcDbDictionary
281
     1
  3
ByBlock
350
97
  3
ByLayer
350
96
  3
Global
350
98
  0
DICTIONARY
  5
D7
102
{ACAD_REACTORS
330
C
102
}
330
C
100
AcDbDictionary
281
     1
  3
Annotative
350
E5
  3
Standard
350
D8
  0
DICTIONARY
  5
17
102
{ACAD_REACTORS
330
C
102
}
330
C
100
AcDbDictionary
281
     1
  3
Standard
350
18
  0
ACDBPERSSUBENTMANAGER
  5
1BD
102
{ACAD_REACTORS
330
C
102
}
330
C
100
AcDbPersSubentManager
 90
        2
 90
        0
 90
        2
 90
        4
 90
        0
 90
        0
  0
DICTIONARY
  5
19
102
{ACAD_REACTORS
330
C
102
}
330
C
100
AcDbDictionary
281
     1
  0
ACDBDICTIONARYWDFLT
  5
E
102
{ACAD_REACTORS
330
C
102
}
330
C
100
AcDbDictionary
281
     1
  3
Normal
350
F
100
AcDbDictionaryWithDefault
340
F
  0
DICTIONARY
  5
B6
102
{ACAD_REACTORS
330
C
102
}
330
C
100
AcDbDictionary
281
     1
  3
A0
350
B7
  3
A1
350
124
  3
A2
350
125
  3
A3
350
126
  3
A4
350
127
  3
A5
350
128
  3
A6
350
129
  3
A7
350
12A
  3
A8
350
12B
  3
A9
350
12C
  3
B0
350
12D
  3
B1
350
12E
  3
B2
350
12F
  3
B3
350
130
  3
B4
350
131
  3
B5
350
132
  3
B6
350
133
  3
B7
350
134
  3
B8
350
135
  3
B9
350
136
  3
C0
350
137
  3
C1
350
138
  3
C2
350
139
  3
C3
350
13A
  3
C4
350
13B
  3
C5
350
13C
  3
C6
350
13D
  3
C7
350
13E
  3
C8
350
13F
  3
C9
350
140
  3
D0
350
141
  3
D1
350
142
  3
D2
350
143
  0
DICTIONARY
  5
86
102
{ACAD_REACTORS
330
C
102
}
330
C
100
AcDbDictionary
281
     1
  3
Standard
350
87
  0
DICTIONARY
  5
99
102
{ACAD_REACTORS
330
C
102
}
330
C
100
AcDbDictionary
281
     1
  3
2dWireframe
350
9F
  3
3D Hidden
350
A1
  3
3dWireframe
350
A0
  3
Basic
350
9E
  3
Brighten
350
A5
  3
ColorChange
350
A9
  3
Conceptual
350
A2
  3
Dim
350
A4
  3
EdgeColorOff
350
175
  3
Facepattern
350
A8
  3
Flat
350
9A
  3
FlatWithEdges
350
9B
  3
Gouraud
350
9C
  3
GouraudWithEdges
350
9D
  3
Hidden
350
17F
  3
JitterOff
350
173
  3
Linepattern
350
A7
  3
OverhangOff
350
174
  3
Realistic
350
A3
  3
Shaded
350
184
  3
Shaded with edges
350
183
  3
Shades of Gray
350
180
  3
Sketchy
350
181
  3
Thicken
350
A6
  3
Wireframe
350
17E
  3
X-Ray
350
182
  0
XRECORD
  5
800
102
{ACAD_REACTORS
330
C
102
}
330
C
100
AcDbXrecord
280
     1
 90
        1
330
87
  0
DICTIONARY
  5
66
102
{ACAD_REACTORS
330
C
102
}
330
C
100
AcDbDictionary
281
     1
  3
CANNOSCALE
350
F0
  3
CMLEADERSTYLE
350
EF
  3
CTABLESTYLE
350
89
  3
DIMASSOC
350
67
  3
HIDETEXT
350
6B
  3
LAYEREVAL
350
14D
  3
LAYERNOTIFY
350
14E
  0
SORTENTSTABLE
  5
362
102
{ACAD_REACTORS
330
15D
102
}
330
15D
100
AcDbSortentsTable
330
1F
331
527
  5
528
331
54F
  5
551
331
529
  5
52B
331
52B
  5
52D
331
598
  5
5E4
331
52D
  5
52F
331
52F
  5
531
331
588
  5
58A
331
58A
  5
58C
331
58C
  5
58E
331
58E
  5
592
331
570
  5
572
331
572
  5
574
331
592
  5
594
331
594
  5
596
331
574
  5
576
331
596
  5
598
331
576
  5
578
331
550
  5
552
331
5E8
  5
507
331
578
  5
57A
331
57A
  5
57C
331
552
  5
554
331
57C
  5
57E
331
57E
  5
580
331
556
  5
558
331
558
  5
55A
331
580
  5
585
331
5E6
  5
5E8
331
530
  5
532
331
55A
  5
55C
331
532
  5
534
331
55C
  5
55E
331
534
  5
53B
331
55E
  5
560
331
586
  5
588
331
560
  5
564
331
504
  5
504
331
53C
  5
53E
331
564
  5
566
331
506
  5
506
331
53E
  5
540
331
566
  5
568
331
508
  5
509
331
540
  5
542
331
568
  5
56D
331
50A
  5
50B
331
542
  5
544
331
50C
  5
50D
331
544
  5
546
331
56C
  5
56E
331
50E
  5
50F
331
546
  5
548
331
56E
  5
570
331
548
  5
54A
331
54A
  5
54E
331
526
  5
527
331
54E
  5
550
331
528
  5
52A
331
52A
  5
52C
331
52C
  5
52E
331
52E
  5
530
331
589
  5
58B
331
58B
  5
58D
331
58D
  5
58F
331
58F
  5
593
331
571
  5
573
331
573
  5
575
331
593
  5
595
331
575
  5
577
331
595
  5
597
331
577
  5
579
331
597
  5
5E3
331
551
  5
553
331
579
  5
57B
331
57B
  5
57D
331
57D
  5
57F
331
5E3
  5
5E5
331
557
  5
559
331
57F
  5
581
331
5E5
  5
5E7
331
531
  5
533
331
559
  5
55B
331
5E7
  5
529
331
581
  5
586
331
533
  5
535
331
55B
  5
55D
331
535
  5
53C
331
55D
  5
55F
331
585
  5
587
331
55F
  5
563
331
587
  5
589
331
53B
  5
53D
331
563
  5
565
331
505
  5
505
331
53D
  5
53F
331
565
  5
567
331
507
  5
508
331
53F
  5
541
331
567
  5
56C
331
509
  5
50A
331
541
  5
543
331
50B
  5
50C
331
543
  5
545
331
50D
  5
50E
331
56D
  5
56F
331
545
  5
547
331
547
  5
549
331
56F
  5
571
331
50F
  5
525
331
549
  5
54B
331
54B
  5
54F
331
525
  5
526
  0
DIMASSOC
  5
767
102
{ACAD_REACTORS
330
75C
102
}
330
75C
100
AcDbDimAssoc
330
74E
 90
        3
 70
     0
 71
     0
  1
AcDbOsnapPointRef
 72
    13
331
531
 73
     2
 91
        0
 40
0.0
 10
0.0
 20
0.0
 30
2.000000000000000E+50
 75
     0
  1
AcDbOsnapPointRef
 72
    13
331
533
 73
     2
 91
        0
 40
0.0
 10
0.0
 20
0.0
 30
2.000000000000000E+50
 75
     0
  0
DIMASSOC
  5
79B
102
{ACAD_REACTORS
330
790
102
}
330
790
100
AcDbDimAssoc
330
782
 90
        2
 70
     0
 71
     0
  1
AcDbOsnapPointRef
 72
    13
331
5E6
 73
     2
 91
        0
 40
0.0
 10
0.0
 20
0.0
 30
2.000000000000000E+50
 75
     0
  0
DIMASSOC
  5
7DA
102
{ACAD_REACTORS
330
7CF
102
}
330
7CF
100
AcDbDimAssoc
330
7C1
 90
        3
 70
     0
 71
     0
  1
AcDbOsnapPointRef
 72
     5
331
52B
 73
     2
 91
        0
 40
3.141592653589793
 10
0.0
 20
0.0
 30
0.0
 75
     0
  1
AcDbOsnapPointRef
 72
     5
331
50A
 73
     2
 91
        0
 40
6.283185307179586
 10
0.0
 20
0.0
 30
0.0
 75
     0
  0
DIMASSOC
  5
7F4
102
{ACAD_REACTORS
330
7E9
102
}
330
7E9
100
AcDbDimAssoc
330
7DB
 90
        3
 70
     0
 71
     0
  1
AcDbOsnapPointRef
 72
    13
331
73D
 73
     2
 91
        0
 40
0.0
 10
0.0
 20
0.0
 30
2.000000000000000E+50
 75
     0
  1
AcDbOsnapPointRef
 72
     5
331
707
 73
     2
 91
        0
 40
6.283185307179586
 10
0.0
 20
0.0
 30
0.0
 75
     0
  0
LAYOUT
  5
59
102
{ACAD_REACTORS
330
1A
102
}
330
1A
100
AcDbPlotSettings
  1

  2
None
  4

  6

 40
0.0
 41
0.0
 42
0.0
 43
0.0
 44
0.0
 45
0.0
 46
0.0
 47
0.0
 48
0.0
 49
0.0
140
0.0
141
0.0
142
1.0
143
1.0
 70
   688
 72
     0
 73
     0
 74
     5
  7

 75
    16
147
1.0
 76
     0
 77
     2
 78
   300
148
0.0
149
0.0
100
AcDbLayout
  1
Layout1
 70
     1
 71
     1
 10
0.0
 20
0.0
 11
12.0
 21
9.0
 12
0.0
 22
0.0
 32
0.0
 14
0.0
 24
0.0
 34
0.0
 15
0.0
 25
0.0
 35
0.0
146
0.0
 13
0.0
 23
0.0
 33
0.0
 16
1.0
 26
0.0
 36
0.0
 17
0.0
 27
1.0
 37
0.0
 76
     0
330
58
  0
LAYOUT
  5
5E
102
{ACAD_REACTORS
330
1A
102
}
330
1A
100
AcDbPlotSettings
  1

  2
None
  4

  6

 40
0.0
 41
0.0
 42
0.0
 43
0.0
 44
0.0
 45
0.0
 46
0.0
 47
0.0
 48
0.0
 49
0.0
140
0.0
141
0.0
142
1.0
143
1.0
 70
   688
 72
     0
 73
     0
 74
     5
  7

 75
    16
147
1.0
 76
     0
 77
     2
 78
   300
148
0.0
149
0.0
100
AcDbLayout
  1
Layout2
 70
     1
 71
     2
 10
0.0
 20
0.0
 11
12.0
 21
9.0
 12
0.0
 22
0.0
 32
0.0
 14
0.0
 24
0.0
 34
0.0
 15
0.0
 25
0.0
 35
0.0
146
0.0
 13
0.0
 23
0.0
 33
0.0
 16
1.0
 26
0.0
 36
0.0
 17
0.0
 27
1.0
 37
0.0
 76
     0
330
5D
  0
LAYOUT
  5
22
102
{ACAD_REACTORS
330
1A
102
}
330
1A
100
AcDbPlotSettings
  1

  2
none_device
  4
ANSI_A_(8.50_x_11.00_Inches)
  6

 40
6.349999904632567
 41
19.04999923706055
 42
6.350006103515625
 43
19.04998779296875
 44
215.8999938964844
 45
279.3999938964844
 46
0.0
 47
0.0
 48
0.0
 49
0.0
140
0.0
141
0.0
142
1.0
143
2.584895464708373
 70
 11952
 72
     0
 73
     1
 74
     0
  7

 75
     0
147
0.3868628397755418
 76
     0
 77
     2
 78
   300
148
0.0
149
0.0
100
AcDbLayout
  1
Model
 70
     1
 71
     0
 10
0.0
 20
0.0
 11
12.0
 21
9.0
 12
0.0
 22
0.0
 32
0.0
 14
0.0
 24
0.0
 34
0.0
 15
0.0
 25
0.0
 35
0.0
146
0.0
 13
0.0
 23
0.0
 33
0.0
 16
1.0
 26
0.0
 36
0.0
 17
0.0
 27
1.0
 37
0.0
 76
     0
330
1F
331
94
  0
MATERIAL
  5
97
102
{ACAD_REACTORS
330
72
102
}
330
72
100
AcDbMaterial
  1
ByBlock
 94
       63
  0
MATERIAL
  5
96
102
{ACAD_REACTORS
330
72
102
}
330
72
100
AcDbMaterial
  1
ByLayer
 94
       63
  0
MATERIAL
  5
98
102
{ACAD_XDICTIONARY
360
110
102
}
102
{ACAD_REACTORS
330
72
102
}
330
72
100
AcDbMaterial
  1
Global
 43
0.0208000000566244
 43
0.0
 43
0.0
 43
0.0
 43
0.0
 43
0.0208000000566244
 43
0.0
 43
0.0
 43
0.0
 43
0.0
 43
1.0
 43
0.0
 43
0.0
 43
0.0
 43
0.0
 43
1.0
 49
0.0208000000566244
 49
0.0
 49
0.0
 49
0.0
 49
0.0
 49
0.0208000000566244
 49
0.0
 49
0.0
 49
0.0
 49
0.0
 49
1.0
 49
0.0
 49
0.0
 49
0.0
 49
0.0
 49
1.0
142
0.0208000000566244
142
0.0
142
0.0
142
0.0
142
0.0
142
0.0208000000566244
142
0.0
142
0.0
142
0.0
142
0.0
142
1.0
142
0.0
142
0.0
142
0.0
142
0.0
142
1.0
144
0.0208000000566244
144
0.0
144
0.0
144
0.0
144
0.0
144
0.0208000000566244
144
0.0
144
0.0
144
0.0
144
0.0
144
1.0
144
0.0
144
0.0
144
0.0
144
0.0
144
1.0
 94
       63
1001
ACAD
1070
    -1
1070
     3
1070
     0
1000

1071
        0
1070
     0
  0
MLEADERSTYLE
  5
E5
102
{ACAD_REACTORS
330
D7
102
}
330
D7
100
AcDbMLeaderStyle
179
     2
170
     2
171
     1
172
     0
 90
        2
 40
0.0
 41
0.0
173
     1
 91
-1056964608
340
14
 92
       -2
290
     1
 42
0.09
291
     1
 43
0.36
  3
Standard
 44
0.18
300

342
11
174
     1
178
     1
175
     1
176
     0
 93
-1056964608
 45
0.18
292
     0
297
     0
 46
0.18
 94
-1056964608
 47
1.0
 49
1.0
140
1.0
293
     1
141
0.0
294
     1
177
     0
142
1.0
295
     0
296
     1
143
0.125
271
     0
272
     9
273
     9
  0
MLEADERSTYLE
  5
D8
102
{ACAD_REACTORS
330
D7
102
}
330
D7
100
AcDbMLeaderStyle
179
     2
170
     2
171
     1
172
     0
 90
        2
 40
0.0
 41
0.0
173
     1
 91
-1056964608
340
14
 92
       -2
290
     1
 42
0.09
291
     1
 43
0.36
  3
Standard
 44
0.18
300

342
11
174
     1
178
     1
175
     1
176
     0
 93
-1056964608
 45
0.18
292
     0
297
     0
 46
0.18
 94
-1056964608
 47
1.0
 49
1.0
140
1.0
293
     1
141
0.0
294
     1
177
     0
142
1.0
295
     0
296
     0
143
0.125
271
     0
272
     9
273
     9
  0
MLINESTYLE
  5
18
102
{ACAD_REACTORS
330
17
102
}
330
17
100
AcDbMlineStyle
  2
STANDARD
 70
     0
  3

 62
   256
 51
90.0
 52
90.0
 71
     2
 49
0.5
 62
   256
  6
BYLAYER
 49
-0.5
 62
   256
  6
BYLAYER
  0
ACDBPLACEHOLDER
  5
F
102
{ACAD_REACTORS
330
E
102
}
330
E
  0
SCALE
  5
B7
102
{ACAD_REACTORS
330
B6
102
}
330
B6
100
AcDbScale
 70
     0
300
1:1
140
1.0
141
1.0
290
     1
  0
SCALE
  5
124
102
{ACAD_REACTORS
330
B6
102
}
330
B6
100
AcDbScale
 70
     0
300
1:2
140
1.0
141
2.0
290
     0
  0
SCALE
  5
125
102
{ACAD_REACTORS
330
B6
102
}
330
B6
100
AcDbScale
 70
     0
300
1:4
140
1.0
141
4.0
290
     0
  0
SCALE
  5
126
102
{ACAD_REACTORS
330
B6
102
}
330
B6
100
AcDbScale
 70
     0
300
1:5
140
1.0
141
5.0
290
     0
  0
SCALE
  5
127
102
{ACAD_REACTORS
330
B6
102
}
330
B6
100
AcDbScale
 70
     0
300
1:8
140
1.0
141
8.0
290
     0
  0
SCALE
  5
128
102
{ACAD_REACTORS
330
B6
102
}
330
B6
100
AcDbScale
 70
     0
300
1:10
140
1.0
141
10.0
290
     0
  0
SCALE
  5
129
102
{ACAD_REACTORS
330
B6
102
}
330
B6
100
AcDbScale
 70
     0
300
1:16
140
1.0
141
16.0
290
     0
  0
SCALE
  5
12A
102
{ACAD_REACTORS
330
B6
102
}
330
B6
100
AcDbScale
 70
     0
300
1:20
140
1.0
141
20.0
290
     0
  0
SCALE
  5
12B
102
{ACAD_REACTORS
330
B6
102
}
330
B6
100
AcDbScale
 70
     0
300
1:30
140
1.0
141
30.0
290
     0
  0
SCALE
  5
12C
102
{ACAD_REACTORS
330
B6
102
}
330
B6
100
AcDbScale
 70
     0
300
1:40
140
1.0
141
40.0
290
     0
  0
SCALE
  5
12D
102
{ACAD_REACTORS
330
B6
102
}
330
B6
100
AcDbScale
 70
     0
300
1:50
140
1.0
141
50.0
290
     0
  0
SCALE
  5
12E
102
{ACAD_REACTORS
330
B6
102
}
330
B6
100
AcDbScale
 70
     0
300
1:100
140
1.0
141
100.0
290
     0
  0
SCALE
  5
12F
102
{ACAD_REACTORS
330
B6
102
}
330
B6
100
AcDbScale
 70
     0
300
2:1
140
2.0
141
1.0
290
     0
  0
SCALE
  5
130
102
{ACAD_REACTORS
330
B6
102
}
330
B6
100
AcDbScale
 70
     0
300
4:1
140
4.0
141
1.0
290
     0
  0
SCALE
  5
131
102
{ACAD_REACTORS
330
B6
102
}
330
B6
100
AcDbScale
 70
     0
300
8:1
140
8.0
141
1.0
290
     0
  0
SCALE
  5
132
102
{ACAD_REACTORS
330
B6
102
}
330
B6
100
AcDbScale
 70
     0
300
10:1
140
10.0
141
1.0
290
     0
  0
SCALE
  5
133
102
{ACAD_REACTORS
330
B6
102
}
330
B6
100
AcDbScale
 70
     0
300
100:1
140
100.0
141
1.0
290
     0
  0
SCALE
  5
134
102
{ACAD_REACTORS
330
B6
102
}
330
B6
100
AcDbScale
 70
     0
300
1/128" = 1'-0"
140
0.0078125
141
12.0
290
     0
  0
SCALE
  5
135
102
{ACAD_REACTORS
330
B6
102
}
330
B6
100
AcDbScale
 70
     0
300
1/64" = 1'-0"
140
0.015625
141
12.0
290
     0
  0
SCALE
  5
136
102
{ACAD_REACTORS
330
B6
102
}
330
B6
100
AcDbScale
 70
     0
300
1/32" = 1'-0"
140
0.03125
141
12.0
290
     0
  0
SCALE
  5
137
102
{ACAD_REACTORS
330
B6
102
}
330
B6
100
AcDbScale
 70
     0
300
1/16" = 1'-0"
140
0.0625
141
12.0
290
     0
  0
SCALE
  5
138
102
{ACAD_REACTORS
330
B6
102
}
330
B6
100
AcDbScale
 70
     0
300
3/32" = 1'-0"
140
0.09375
141
12.0
290
     0
  0
SCALE
  5
139
102
{ACAD_REACTORS
330
B6
102
}
330
B6
100
AcDbScale
 70
     0
300
1/8" = 1'-0"
140
0.125
141
12.0
290
     0
  0
SCALE
  5
13A
102
{ACAD_REACTORS
330
B6
102
}
330
B6
100
AcDbScale
 70
     0
300
3/16" = 1'-0"
140
0.1875
141
12.0
290
     0
  0
SCALE
  5
13B
102
{ACAD_REACTORS
330
B6
102
}
330
B6
100
AcDbScale
 70
     0
300
1/4" = 1'-0"
140
0.25
141
12.0
290
     0
  0
SCALE
  5
13C
102
{ACAD_REACTORS
330
B6
102
}
330
B6
100
AcDbScale
 70
     0
300
3/8" = 1'-0"
140
0.375
141
12.0
290
     0
  0
SCALE
  5
13D
102
{ACAD_REACTORS
330
B6
102
}
330
B6
100
AcDbScale
 70
     0
300
1/2" = 1'-0"
140
0.5
141
12.0
290
     0
  0
SCALE
  5
13E
102
{ACAD_REACTORS
330
B6
102
}
330
B6
100
AcDbScale
 70
     0
300
3/4" = 1'-0"
140
0.75
141
12.0
290
     0
  0
SCALE
  5
13F
102
{ACAD_REACTORS
330
B6
102
}
330
B6
100
AcDbScale
 70
     0
300
1" = 1'-0"
140
1.0
141
12.0
290
     0
  0
SCALE
  5
140
102
{ACAD_REACTORS
330
B6
102
}
330
B6
100
AcDbScale
 70
     0
300
1-1/2" = 1'-0"
140
1.5
141
12.0
290
     0
  0
SCALE
  5
141
102
{ACAD_REACTORS
330
B6
102
}
330
B6
100
AcDbScale
 70
     0
300
3" = 1'-0"
140
3.0
141
12.0
290
     0
  0
SCALE
  5
142
102
{ACAD_REACTORS
330
B6
102
}
330
B6
100
AcDbScale
 70
     0
300
6" = 1'-0"
140
6.0
141
12.0
290
     0
  0
SCALE
  5
143
102
{ACAD_REACTORS
330
B6
102
}
330
B6
100
AcDbScale
 70
     0
300
1'-0" = 1'-0"
140
12.0
141
12.0
290
     0
  0
TABLESTYLE
  5
87
102
{ACAD_XDICTIONARY
360
104
102
}
102
{ACAD_REACTORS
330
86
102
}
330
86
100
AcDbTableStyle
280
     0
  3
Standard
 70
     0
 71
     0
 40
0.06
 41
0.06
280
     0
281
     0
  7
Standard
140
0.18
170
     2
 62
     0
 63
     7
283
     0
 90
      512
 91
        0
  1

274
    -2
284
     1
 64
     0
275
    -2
285
     1
 65
     0
276
    -2
286
     1
 66
     0
277
    -2
287
     1
 67
     0
278
    -2
288
     1
 68
     0
279
    -2
289
     1
 69
     0
  7
Standard
140
0.25
170
     5
 62
     0
 63
     7
283
     0
 90
      512
 91
        0
  1

274
    -2
284
     1
 64
     0
275
    -2
285
     1
 65
     0
276
    -2
286
     1
 66
     0
277
    -2
287
     1
 67
     0
278
    -2
288
     1
 68
     0
279
    -2
289
     1
 69
     0
  7
Standard
140
0.18
170
     5
 62
     0
 63
     7
283
     0
 90
      512
 91
        0
  1

274
    -2
284
     1
 64
     0
275
    -2
285
     1
 65
     0
276
    -2
286
     1
 66
     0
277
    -2
287
     1
 67
     0
278
    -2
288
     1
 68
     0
279
    -2
289
     1
 69
     0
  0
VISUALSTYLE
  5
9F
102
{ACAD_REACTORS
330
99
102
}
330
99
100
AcDbVisualStyle
  2
2dWireframe
 70
     4
177
     2
291
     0
 71
     0
176
     1
 72
     2
176
     1
 73
     1
176
     1
 90
        0
176
     1
 40
0.6
176
     1
 41
30.0
176
     1
 63
     7
421
 16777215
176
     1
 74
     1
176
     1
 91
        4
176
     1
 64
     7
176
     1
 65
   257
176
     1
 75
     1
176
     1
175
     1
176
     1
 42
1.0
176
     1
 92
        0
176
     1
 66
   257
176
     1
 43
1.0
176
     1
 76
     1
176
     1
 77
     6
176
     1
 78
     2
176
     1
 67
     7
176
     1
 79
     5
176
     1
170
     0
176
     1
171
     0
176
     1
290
     0
176
     1
 93
        1
176
     1
 44
0.0
176
     1
173
     0
176
     1
  0
VISUALSTYLE
  5
A1
102
{ACAD_REACTORS
330
99
102
}
330
99
100
AcDbVisualStyle
  2
3D Hidden
 70
     6
177
     2
291
     0
 71
     1
176
     1
 72
     2
176
     1
 73
     2
176
     1
 90
        0
176
     1
 40
0.6
176
     1
 41
30.0
176
     1
 63
     7
421
 16777215
176
     1
 74
     2
176
     1
 91
        2
176
     1
 64
     7
176
     1
 65
   257
176
     1
 75
     2
176
     1
175
     1
176
     1
 42
40.0
176
     1
 92
        0
176
     1
 66
   257
176
     1
 43
1.0
176
     1
 76
     1
176
     1
 77
     6
176
     1
 78
     2
176
     1
 67
     7
176
     1
 79
     3
176
     1
170
     0
176
     1
171
     0
176
     1
290
     0
176
     1
 93
        1
176
     1
 44
0.0
176
     1
173
     0
176
     1
  0
VISUALSTYLE
  5
A0
102
{ACAD_REACTORS
330
99
102
}
330
99
100
AcDbVisualStyle
  2
3dWireframe
 70
     5
177
     2
291
     0
 71
     0
176
     1
 72
     2
176
     1
 73
     1
176
     1
 90
        0
176
     1
 40
0.6
176
     1
 41
30.0
176
     1
 63
     7
421
 16777215
176
     1
 74
     1
176
     1
 91
        4
176
     1
 64
     7
176
     1
 65
   257
176
     1
 75
     1
176
     1
175
     1
176
     1
 42
1.0
176
     1
 92
        0
176
     1
 66
   257
176
     1
 43
1.0
176
     1
 76
     1
176
     1
 77
     6
176
     1
 78
     2
176
     1
 67
     7
176
     1
 79
     5
176
     1
170
     0
176
     1
171
     0
176
     1
290
     0
176
     1
 93
        1
176
     1
 44
0.0
176
     1
173
     0
176
     1
  0
VISUALSTYLE
  5
9E
102
{ACAD_REACTORS
330
99
102
}
330
99
100
AcDbVisualStyle
  2
Basic
 70
     7
177
     2
291
     1
 71
     1
176
     1
 72
     0
176
     1
 73
     1
176
     1
 90
        0
176
     1
 40
0.6
176
     1
 41
30.0
176
     1
 63
     7
421
 16777215
176
     1
 74
     0
176
     1
 91
        4
176
     1
 64
     7
176
     1
 65
   257
176
     1
 75
     1
176
     1
175
     1
176
     1
 42
1.0
176
     1
 92
        8
176
     1
 66
     7
176
     1
 43
1.0
176
     1
 76
     1
176
     1
 77
     6
176
     1
 78
     2
176
     1
 67
     7
176
     1
 79
     5
176
     1
170
     0
176
     1
171
     0
176
     1
290
     0
176
     1
 93
        1
176
     1
 44
0.0
176
     1
173
     0
176
     1
  0
VISUALSTYLE
  5
A5
102
{ACAD_REACTORS
330
99
102
}
330
99
100
AcDbVisualStyle
  2
Brighten
 70
    12
177
     2
291
     1
 71
     2
176
     1
 72
     2
176
     1
 73
     1
176
     1
 90
        0
176
     1
 40
0.6
176
     1
 41
30.0
176
     1
 63
     7
421
 16777215
176
     1
 74
     1
176
     1
 91
        4
176
     1
 64
     7
176
     1
 65
   257
176
     1
 75
     1
176
     1
175
     1
176
     1
 42
1.0
176
     1
 92
        8
176
     1
 66
     7
176
     1
 43
1.0
176
     1
 76
     1
176
     1
 77
     6
176
     1
 78
     2
176
     1
 67
     7
176
     1
 79
     5
176
     1
170
     0
176
     1
171
     0
176
     1
290
     0
176
     1
 93
        1
176
     1
 44
50.0
176
     1
173
     0
176
     1
  0
VISUALSTYLE
  5
A9
102
{ACAD_REACTORS
330
99
102
}
330
99
100
AcDbVisualStyle
  2
ColorChange
 70
    16
177
     2
291
     1
 71
     2
176
     1
 72
     2
176
     1
 73
     3
176
     1
 90
        0
176
     1
 40
0.6
176
     1
 41
30.0
176
     1
 63
     8
421
  8421504
176
     1
 74
     1
176
     1
 91
        4
176
     1
 64
     7
176
     1
 65
   257
176
     1
 75
     1
176
     1
175
     1
176
     1
 42
1.0
176
     1
 92
        8
176
     1
 66
     8
424
  8421504
176
     1
 43
1.0
176
     1
 76
     1
176
     1
 77
     6
176
     1
 78
     2
176
     1
 67
     7
176
     1
 79
     5
176
     1
170
     0
176
     1
171
     0
176
     1
290
     0
176
     1
 93
        1
176
     1
 44
0.0
176
     1
173
     0
176
     1
  0
VISUALSTYLE
  5
A2
102
{ACAD_REACTORS
330
99
102
}
330
99
100
AcDbVisualStyle
  2
Conceptual
 70
     9
177
     2
291
     0
 71
     3
176
     1
 72
     2
176
     1
 73
     1
176
     1
 90
        0
176
     1
 40
0.6
176
     1
 41
30.0
176
     1
 63
     7
421
 16777215
176
     1
 74
     2
176
     1
 91
        2
176
     1
 64
     7
176
     1
 65
   257
176
     1
 75
     1
176
     1
175
     1
176
     1
 42
40.0
176
     1
 92
        8
176
     1
 66
     7
176
     1
 43
1.0
176
     1
 76
     1
176
     1
 77
     6
176
     1
 78
     2
176
     1
 67
     7
176
     1
 79
     3
176
     1
170
     0
176
     1
171
     0
176
     1
290
     0
176
     1
 93
        1
176
     1
 44
0.0
176
     1
173
     0
176
     1
  0
VISUALSTYLE
  5
A4
102
{ACAD_REACTORS
330
99
102
}
330
99
100
AcDbVisualStyle
  2
Dim
 70
    11
177
     2
291
     1
 71
     2
176
     1
 72
     2
176
     1
 73
     1
176
     1
 90
        0
176
     1
 40
0.6
176
     1
 41
30.0
176
     1
 63
     7
421
 16777215
176
     1
 74
     1
176
     1
 91
        4
176
     1
 64
     7
176
     1
 65
   257
176
     1
 75
     1
176
     1
175
     1
176
     1
 42
1.0
176
     1
 92
        8
176
     1
 66
     7
176
     1
 43
1.0
176
     1
 76
     1
176
     1
 77
     6
176
     1
 78
     2
176
     1
 67
     7
176
     1
 79
     5
176
     1
170
     0
176
     1
171
     0
176
     1
290
     0
176
     1
 93
        1
176
     1
 44
-50.0
176
     1
173
     0
176
     1
  0
VISUALSTYLE
  5
175
102
{ACAD_REACTORS
330
99
102
}
330
99
100
AcDbVisualStyle
  2
EdgeColorOff
 70
    22
177
     2
291
     1
 71
     2
176
     0
 72
     2
176
     0
 73
     0
176
     0
 90
        0
176
     0
 40
0.6
176
     0
 41
30.0
176
     0
 63
     7
421
 16777215
176
     0
 74
     1
176
     0
 91
        4
176
     0
 64
     7
176
     0
 65
   257
176
     0
 75
     1
176
     0
175
     1
176
     0
 42
1.0
176
     0
 92
        8
176
     2
 66
     7
176
     0
 43
1.0
176
     0
 76
     1
176
     0
 77
     6
176
     0
 78
     2
176
     0
 67
     7
176
     0
 79
     5
176
     0
170
     0
176
     0
171
     0
176
     0
290
     0
176
     0
 93
        1
176
     0
 44
0.0
176
     0
173
     0
176
     0
  0
VISUALSTYLE
  5
A8
102
{ACAD_REACTORS
330
99
102
}
330
99
100
AcDbVisualStyle
  2
Facepattern
 70
    15
177
     2
291
     1
 71
     2
176
     1
 72
     2
176
     1
 73
     1
176
     1
 90
        0
176
     1
 40
0.6
176
     1
 41
30.0
176
     1
 63
     7
421
 16777215
176
     1
 74
     1
176
     1
 91
        4
176
     1
 64
     7
176
     1
 65
   257
176
     1
 75
     1
176
     1
175
     1
176
     1
 42
1.0
176
     1
 92
        8
176
     1
 66
     7
176
     1
 43
1.0
176
     1
 76
     1
176
     1
 77
     6
176
     1
 78
     2
176
     1
 67
     7
176
     1
 79
     5
176
     1
170
     0
176
     1
171
     0
176
     1
290
     0
176
     1
 93
        1
176
     1
 44
0.0
176
     1
173
     0
176
     1
  0
VISUALSTYLE
  5
9A
102
{ACAD_REACTORS
330
99
102
}
330
99
100
AcDbVisualStyle
  2
Flat
 70
     0
177
     2
291
     1
 71
     2
176
     1
 72
     1
176
     1
 73
     1
176
     1
 90
        2
176
     1
 40
0.6
176
     1
 41
30.0
176
     1
 63
     7
421
 16777215
176
     1
 74
     0
176
     1
 91
        4
176
     1
 64
     7
176
     1
 65
   257
176
     1
 75
     1
176
     1
175
     1
176
     1
 42
1.0
176
     1
 92
        8
176
     1
 66
     7
176
     1
 43
1.0
176
     1
 76
     1
176
     1
 77
     6
176
     1
 78
     2
176
     1
 67
     7
176
     1
 79
     5
176
     1
170
     0
176
     1
171
     0
176
     1
290
     0
176
     1
 93
        1
176
     1
 44
0.0
176
     1
173
     0
176
     1
  0
VISUALSTYLE
  5
9B
102
{ACAD_REACTORS
330
99
102
}
330
99
100
AcDbVisualStyle
  2
FlatWithEdges
 70
     1
177
     2
291
     1
 71
     2
176
     1
 72
     1
176
     1
 73
     1
176
     1
 90
        2
176
     1
 40
0.6
176
     1
 41
30.0
176
     1
 63
     7
421
 16777215
176
     1
 74
     1
176
     1
 91
        4
176
     1
 64
     7
176
     1
 65
   257
176
     1
 75
     1
176
     1
175
     1
176
     1
 42
1.0
176
     1
 92
        0
176
     1
 66
   257
176
     1
 43
1.0
176
     1
 76
     1
176
     1
 77
     6
176
     1
 78
     2
176
     1
 67
     7
176
     1
 79
     5
176
     1
170
     0
176
     1
171
     0
176
     1
290
     0
176
     1
 93
        1
176
     1
 44
0.0
176
     1
173
     0
176
     1
  0
VISUALSTYLE
  5
9C
102
{ACAD_REACTORS
330
99
102
}
330
99
100
AcDbVisualStyle
  2
Gouraud
 70
     2
177
     2
291
     1
 71
     2
176
     1
 72
     2
176
     1
 73
     1
176
     1
 90
        2
176
     1
 40
0.6
176
     1
 41
30.0
176
     1
 63
     7
421
 16777215
176
     1
 74
     0
176
     1
 91
        4
176
     1
 64
     7
176
     1
 65
   257
176
     1
 75
     1
176
     1
175
     1
176
     1
 42
1.0
176
     1
 92
        0
176
     1
 66
     7
176
     1
 43
1.0
176
     1
 76
     1
176
     1
 77
     6
176
     1
 78
     2
176
     1
 67
     7
176
     1
 79
     5
176
     1
170
     0
176
     1
171
     0
176
     1
290
     0
176
     1
 93
        1
176
     1
 44
0.0
176
     1
173
     0
176
     1
  0
VISUALSTYLE
  5
9D
102
{ACAD_REACTORS
330
99
102
}
330
99
100
AcDbVisualStyle
  2
GouraudWithEdges
 70
     3
177
     2
291
     1
 71
     2
176
     1
 72
     2
176
     1
 73
     1
176
     1
 90
        2
176
     1
 40
0.6
176
     1
 41
30.0
176
     1
 63
     7
421
 16777215
176
     1
 74
     1
176
     1
 91
        4
176
     1
 64
     7
176
     1
 65
   257
176
     1
 75
     1
176
     1
175
     1
176
     1
 42
1.0
176
     1
 92
        0
176
     1
 66
   257
176
     1
 43
1.0
176
     1
 76
     1
176
     1
 77
     6
176
     1
 78
     2
176
     1
 67
     7
176
     1
 79
     5
176
     1
170
     0
176
     1
171
     0
176
     1
290
     0
176
     1
 93
        1
176
     1
 44
0.0
176
     1
173
     0
176
     1
  0
VISUALSTYLE
  5
17F
102
{ACAD_REACTORS
330
99
102
}
330
99
100
AcDbVisualStyle
  2
Hidden
 70
     6
177
     2
291
     0
 71
     1
176
     1
 72
     2
176
     1
 73
     2
176
     1
 90
        0
176
     1
 40
0.6
176
     1
 41
30.0
176
     1
 63
     7
421
 16777215
176
     1
 74
     2
176
     1
 91
        2
176
     1
 64
     7
176
     1
 65
   257
176
     1
 75
     2
176
     1
175
     1
176
     1
 42
40.0
176
     1
 92
        0
176
     1
 66
   257
176
     1
 43
1.0
176
     1
 76
     1
176
     1
 77
     6
176
     1
 78
     2
176
     1
 67
     7
176
     1
 79
     3
176
     1
170
     0
176
     1
171
     0
176
     1
290
     0
176
     1
 93
        1
176
     1
 44
0.0
176
     1
173
     0
176
     1
  0
VISUALSTYLE
  5
173
102
{ACAD_REACTORS
330
99
102
}
330
99
100
AcDbVisualStyle
  2
JitterOff
 70
    20
177
     2
291
     1
 71
     2
176
     0
 72
     2
176
     0
 73
     0
176
     0
 90
        0
176
     0
 40
0.6
176
     0
 41
30.0
176
     0
 63
     7
421
 16777215
176
     0
 74
     1
176
     0
 91
        4
176
     0
 64
     7
176
     0
 65
   257
176
     0
 75
     1
176
     0
175
     1
176
     0
 42
1.0
176
     0
 92
       10
176
     2
 66
     7
176
     0
 43
1.0
176
     0
 76
     1
176
     0
 77
     6
176
     0
 78
     2
176
     0
 67
     7
176
     0
 79
     5
176
     0
170
     0
176
     0
171
     0
176
     0
290
     0
176
     0
 93
        1
176
     0
 44
0.0
176
     0
173
     0
176
     0
  0
VISUALSTYLE
  5
A7
102
{ACAD_REACTORS
330
99
102
}
330
99
100
AcDbVisualStyle
  2
Linepattern
 70
    14
177
     2
291
     1
 71
     2
176
     1
 72
     2
176
     1
 73
     1
176
     1
 90
        0
176
     1
 40
0.6
176
     1
 41
30.0
176
     1
 63
     7
421
 16777215
176
     1
 74
     1
176
     1
 91
        4
176
     1
 64
     7
176
     1
 65
   257
176
     1
 75
     7
176
     1
175
     7
176
     1
 42
1.0
176
     1
 92
        8
176
     1
 66
     7
176
     1
 43
1.0
176
     1
 76
     1
176
     1
 77
     6
176
     1
 78
     2
176
     1
 67
     7
176
     1
 79
     5
176
     1
170
     0
176
     1
171
     0
176
     1
290
     0
176
     1
 93
        1
176
     1
 44
0.0
176
     1
173
     0
176
     1
  0
VISUALSTYLE
  5
174
102
{ACAD_REACTORS
330
99
102
}
330
99
100
AcDbVisualStyle
  2
OverhangOff
 70
    21
177
     2
291
     1
 71
     2
176
     0
 72
     2
176
     0
 73
     0
176
     0
 90
        0
176
     0
 40
0.6
176
     0
 41
30.0
176
     0
 63
     7
421
 16777215
176
     0
 74
     1
176
     0
 91
        4
176
     0
 64
     7
176
     0
 65
   257
176
     0
 75
     1
176
     0
175
     1
176
     0
 42
1.0
176
     0
 92
        9
176
     2
 66
     7
176
     0
 43
1.0
176
     0
 76
     1
176
     0
 77
     6
176
     0
 78
     2
176
     0
 67
     7
176
     0
 79
     5
176
     0
170
     0
176
     0
171
     0
176
     0
290
     0
176
     0
 93
        1
176
     0
 44
0.0
176
     0
173
     0
176
     0
  0
VISUALSTYLE
  5
A3
102
{ACAD_REACTORS
330
99
102
}
330
99
100
AcDbVisualStyle
  2
Realistic
 70
     8
177
     2
291
     0
 71
     2
176
     1
 72
     2
176
     1
 73
     1
176
     1
 90
        0
176
     1
 40
0.6
176
     1
 41
30.0
176
     1
 63
     7
421
 16777215
176
     1
 74
     1
176
     1
 91
        0
176
     1
 64
     7
176
     1
 65
   257
176
     1
 75
     1
176
     1
175
     1
176
     1
 42
1.0
176
     1
 92
        8
176
     1
 66
     8
424
  7895160
176
     1
 43
1.0
176
     1
 76
     1
176
     1
 77
     6
176
     1
 78
     2
176
     1
 67
     7
176
     1
 79
     5
176
     1
170
     0
176
     1
171
     0
176
     1
290
     0
176
     1
 93
       13
176
     1
 44
0.0
176
     1
173
     0
176
     1
  0
VISUALSTYLE
  5
184
102
{ACAD_REACTORS
330
99
102
}
330
99
100
AcDbVisualStyle
  2
Shaded
 70
    27
177
     2
291
     0
 71
     2
176
     1
 72
     2
176
     1
 73
     1
176
     1
 90
        2
176
     1
 40
0.6
176
     1
 41
30.0
176
     1
 63
     7
421
 16777215
176
     1
 74
     0
176
     1
 91
        4
176
     1
 64
     7
176
     1
 65
   257
176
     1
 75
     1
176
     1
175
     1
176
     1
 42
1.0
176
     1
 92
        8
176
     1
 66
   257
176
     1
 43
1.0
176
     1
 76
     1
176
     1
 77
     6
176
     1
 78
     2
176
     1
 67
     8
425
  7895160
176
     1
 79
     3
176
     1
170
     0
176
     1
171
     0
176
     1
290
     0
176
     1
 93
        5
176
     1
 44
0.0
176
     1
173
     0
176
     1
  0
VISUALSTYLE
  5
183
102
{ACAD_REACTORS
330
99
102
}
330
99
100
AcDbVisualStyle
  2
Shaded with edges
 70
    26
177
     2
291
     0
 71
     2
176
     1
 72
     2
176
     1
 73
     1
176
     1
 90
        2
176
     1
 40
0.6
176
     1
 41
30.0
176
     1
 63
     7
421
 16777215
176
     1
 74
     1
176
     1
 91
       10
176
     1
 64
     7
176
     1
 65
   257
176
     1
 75
     2
176
     1
175
     1
176
     1
 42
1.0
176
     1
 92
        8
176
     1
 66
   257
176
     1
 43
1.0
176
     1
 76
     1
176
     1
 77
     6
176
     1
 78
     2
176
     1
 67
     7
176
     1
 79
     3
176
     1
170
     0
176
     1
171
     0
176
     1
290
     0
176
     1
 93
        5
176
     1
 44
0.0
176
     1
173
     0
176
     1
  0
VISUALSTYLE
  5
180
102
{ACAD_REACTORS
330
99
102
}
330
99
100
AcDbVisualStyle
  2
Shades of Gray
 70
    23
177
     2
291
     0
 71
     2
176
     1
 72
     2
176
     1
 73
     3
176
     1
 90
        0
176
     1
 40
0.6
176
     1
 41
30.0
176
     1
 63
     7
421
 16777215
176
     1
 74
     2
176
     1
 91
        2
176
     1
 64
     7
176
     1
 65
     7
176
     1
 75
     1
176
     1
175
     1
176
     1
 42
40.0
176
     1
 92
        8
176
     1
 66
     7
176
     1
 43
1.0
176
     1
 76
     1
176
     1
 77
     6
176
     1
 78
     2
176
     1
 67
     7
176
     1
 79
     3
176
     1
170
     0
176
     1
171
     0
176
     1
290
     0
176
     1
 93
        1
176
     1
 44
0.0
176
     1
173
     0
176
     1
  0
VISUALSTYLE
  5
181
102
{ACAD_REACTORS
330
99
102
}
330
99
100
AcDbVisualStyle
  2
Sketchy
 70
    24
177
     2
291
     0
 71
     1
176
     1
 72
     2
176
     1
 73
     2
176
     1
 90
        0
176
     1
 40
0.6
176
     1
 41
30.0
176
     1
 63
     7
421
 16777215
176
     1
 74
     2
176
     1
 91
        2
176
     1
 64
     7
176
     1
 65
     7
176
     1
 75
     1
176
     1
175
     1
176
     1
 42
40.0
176
     1
 92
       11
176
     1
 66
     7
176
     1
 43
1.0
176
     1
 76
     1
176
     1
 77
     6
176
     1
 78
     2
176
     1
 67
     7
176
     1
 79
     6
176
     1
170
     0
176
     1
171
     0
176
     1
290
     0
176
     1
 93
        1
176
     1
 44
0.0
176
     1
173
     0
176
     1
  0
VISUALSTYLE
  5
A6
102
{ACAD_REACTORS
330
99
102
}
330
99
100
AcDbVisualStyle
  2
Thicken
 70
    13
177
     2
291
     1
 71
     2
176
     1
 72
     2
176
     1
 73
     1
176
     1
 90
        0
176
     1
 40
0.6
176
     1
 41
30.0
176
     1
 63
     7
421
 16777215
176
     1
 74
     1
176
     1
 91
        4
176
     1
 64
     7
176
     1
 65
   257
176
     1
 75
     1
176
     1
175
     1
176
     1
 42
1.0
176
     1
 92
       12
176
     1
 66
     7
176
     1
 43
1.0
176
     1
 76
     1
176
     1
 77
     6
176
     1
 78
     2
176
     1
 67
     7
176
     1
 79
     5
176
     1
170
     0
176
     1
171
     0
176
     1
290
     0
176
     1
 93
        1
176
     1
 44
0.0
176
     1
173
     0
176
     1
  0
VISUALSTYLE
  5
17E
102
{ACAD_REACTORS
330
99
102
}
330
99
100
AcDbVisualStyle
  2
Wireframe
 70
     5
177
     2
291
     0
 71
     0
176
     1
 72
     2
176
     1
 73
     0
176
     1
 90
        0
176
     1
 40
0.6
176
     1
 41
30.0
176
     1
 63
     7
421
 16777215
176
     1
 74
     1
176
     1
 91
        4
176
     1
 64
     7
176
     1
 65
   257
176
     1
 75
     1
176
     1
175
     1
176
     1
 42
1.0
176
     1
 92
        0
176
     1
 66
   257
176
     1
 43
1.0
176
     1
 76
     1
176
     1
 77
     6
176
     1
 78
     2
176
     1
 67
     7
176
     1
 79
     3
176
     1
170
     0
176
     1
171
     0
176
     1
290
     0
176
     1
 93
        1
176
     1
 44
0.0
176
     1
173
     0
176
     1
  0
VISUALSTYLE
  5
182
102
{ACAD_REACTORS
330
99
102
}
330
99
100
AcDbVisualStyle
  2
X-Ray
 70
    25
177
     2
291
     0
 71
     2
176
     1
 72
     2
176
     1
 73
     1
176
     1
 90
        1
176
     1
 40
0.5
176
     1
 41
30.0
176
     1
 63
     7
421
 16777215
176
     1
 74
     1
176
     1
 91
        0
176
     1
 64
     7
176
     1
 65
   257
176
     1
 75
     1
176
     1
175
     1
176
     1
 42
1.0
176
     1
 92
        8
176
     1
 66
     7
176
     1
 43
1.0
176
     1
 76
     1
176
     1
 77
     6
176
     1
 78
     2
176
     1
 67
     7
176
     1
 79
     3
176
     1
170
     0
176
     1
171
     0
176
     1
290
     0
176
     1
 93
       13
176
     1
 44
0.0
176
     1
173
     0
176
     1
  0
DICTIONARYVAR
  5
F0
102
{ACAD_REACTORS
330
66
102
}
330
66
100
DictionaryVariables
280
     0
  1
1:1
  0
DICTIONARYVAR
  5
EF
102
{ACAD_REACTORS
330
66
102
}
330
66
100
DictionaryVariables
280
     0
  1
STANDARD
  0
DICTIONARYVAR
  5
89
102
{ACAD_REACTORS
330
66
102
}
330
66
100
DictionaryVariables
280
     0
  1
STANDARD
  0
DICTIONARYVAR
  5
67
102
{ACAD_REACTORS
330
66
102
}
330
66
100
DictionaryVariables
280
     0
  1
2
  0
DICTIONARYVAR
  5
6B
102
{ACAD_REACTORS
330
66
102
}
330
66
100
DictionaryVariables
280
     0
  1
1
  0
DICTIONARYVAR
  5
14D
102
{ACAD_REACTORS
330
66
102
}
330
66
100
DictionaryVariables
280
     0
  1
0
  0
DICTIONARYVAR
  5
14E
102
{ACAD_REACTORS
330
66
102
}
330
66
100
DictionaryVariables
280
     0
  1
0
  0
DICTIONARY
  5
110
330
98
100
AcDbDictionary
280
     1
281
     1
  3
BUMPTILE
360
112
  3
DIFFUSETILE
360
111
  3
FBXASSET
360
3D4
  3
OPACITYTILE
360
113
  3
REFLECTIONTILE
360
114
  0
DICTIONARY
  5
104
330
87
100
AcDbDictionary
280
     1
281
     1
  3
ACAD_ROUNDTRIP_2008_TABLESTYLE_CELLSTYLEMAP
360
7FF
  0
XRECORD
  5
112
102
{ACAD_REACTORS
330
110
102
}
330
110
100
AcDbXrecord
280
     1
270
     1
271
     1
  0
XRECORD
  5
111
102
{ACAD_REACTORS
330
110
102
}
330
110
100
AcDbXrecord
280
     1
270
     1
271
     1
  0
XRECORD
  5
3D4
102
{ACAD_REACTORS
330
110
102
}
330
110
100
AcDbXrecord
280
     1
 70
     1
 90
1778669749
 71
     1
  1
BC4ABC41-C940-42BB-86DB-4857335A614E
310
504B03040A000008000064500D453DEE336E79000000790000001B0000006175746F6465736B2D64657369676E2D7061636B6167652E786D6C3C3F786D6C2076657273696F6E3D22312E302220656E636F64696E673D227574662D3822203F3E3C666F726D6174733E3C666F726D61743E687474703A2F2F736368656D612E
310
6175746F6465736B2E636F6D2F64657369676E2D7061636B6167652F323030393C2F666F726D61743E3C2F666F726D6174733E504B030414000608080064500D4565017641AD00000026010000130000005B436F6E74656E745F54797065735D2E786D6C6D8E4D0E82301085AFD2CC1E8A2E8C31800BF5065CA0D6011AE9B4
310
690783B7B70D1B4358CE9BF7F3D5D7C54EE283211A470D1CCA0A0492762F43430333F7C519C4B5ADBBAFC7289297620323B3BF4819F58856C5D279A4F4E95DB08AD31906E9957EAB01E5B1AA4E523B62242E3877405BDFB157F3C4E2B12479DD7D1A02715B7D5DB235A0BC9F8C569CB0A4D38C5C440EA82CC8DD024FC3A6C0
310
D80C90F5FD4422DE24FE27F337E5648689ED0F504B030414000608080064500D45132A07D6E80000007C01000008000000636F72652E786D6C8D905D6EC3201084AF82F61D1BFCD3500B1339896FD00B20202E4A0C9681AAC72F4E1CA97DEBD38E86F9D8D5F0E3F77C475F660DD6BB1E68410019A7BCB66EEA21C52B66808E
310
82AFDEC75F31404ECEA687CD06C1A7D5A765B79477D1B8985DE7B5D94D19828980D43D8B1E82FA34B32C648A39116EC522D54D4EA6A02F95E194AC46CF2556E7FFECD59A15C4F9723855A791E1CB3052DCD071C043CD08264D4B5B7638BC9FD91B2F3758F068E7D77EB51A198D065111DA60C230AD3F28E948DD654DDA8E10
310
5E6EF13F505AF43FA1645DACABFDDC271640D07CC8E341F072EB228F4751796EBD891F504B030414000608080064500D4555019EA25F0000007C00000007000000636E782E786D6C4DCB3B0E80201045D1AD90E915ED2CF8AC45050C11660C8261F98AB1B07AC9C97D42D718D865D3E909258CFD00CCE24AC6E326A164D74D
310
C0B4128928FF326038472BA13128B1252AC747C6BAB984FC68F0B87FE8960A5C09FE86CFB69FBA01504B030414000608080064500D45648F4DA86E010000D40300000C0000006662782F636F72652E786D6CC5535B6E833010BC8AE57FB00DA4A1917194D70D7A01071C8A02363236CAF1BB3CA234551AA55FE5035633BBDE
310
9901F8FAD2D4A857B6AB8CCE300B29464AE7A6A8749961EF4E418AD15A706B8CFBD68691968DCAF00063C14B6B7C3B43B9D14E6907A836859A41D975CA6194D75064B8CB3F552343E91D7474E7B095F959962A6421D0D02778E72C0840D392E18EC5E978E164C205F7BE2A66B62A605B75AA94C562B75F6EA3ED210DF69B03
310
0B1276D8049B38A5014D166C912E97EFBBF48D9361587057355775B955D2A9028B88B224A069C0E20F4657345E414D172B4A3919DAEF867C5BBC38E42BEDE268963B8D7558301032123FDC42440E75B2073D44703284088F31E1FBA0211008D9C9637DF57106A857B9333601A630FE46F5B2F60AB6D2908E17FABDE0649A84
310
ADE3E1E0FAE18EE8E51DCF4F84572D750926A483F2E8DDA0934F1AE6D05A6583DE5D9036B691F56B369E38FC137513FF50526E6A63FF4B11995F10993F0F32FC8FE20B504B030414000608080064500D45657B478E7E0000009D0000000B0000006662782F636E782E786D6C4DCCD10E82201886E15B61FF398916061BE028
310
E23E5CA273213482D6E5A7CD838EBEEDD9B757749FC5A3B74BAF390609F5810072E11E87394C124A1E3103D4299162CC7F3740A15F9C848D418929C5F2DC6970635F7C5ED5CFE1B1E3CD5876395B8AEB465B7C6A8CC19A518E352547CE08E76D7B854A89EA575A770BAB2F504B030414000608080064500D4581027CF22901
310
000012020000310000006662782F45444638423746352D313241462D343244442D413835392D4135303339383039393636432F636F72652E786D6C8D514B6EC32014BC0A62952EB0C1BFDA11264A9BE604BD000192A2C460F1A972FC42ED48ED2E1B1E9A37336FE0D1DD7DBA816FE5BCB66684A4C0102823ACD4E632C218CE
310
A88760C7A8B336FCA14160F8A4469861C8E8C5D938AF90B0262813126AAC542BC8BD570102714B97117AF1A5265EF01812C35F8B998B2BBFA88214A99D788CFAE05200B00CC927641F8763FFF67A6C11A9F647D4548703DAF7ED80F62DAE871E0F43D7BDD37211321AA396AB5CCB14479FB572CF9A6431A3414F8FF8C2291E
310
9484ACC2A441B847A4FE24788BEB6DBAE3768B312D33FD9F28CEF24951D426D4D51A779179C8082D9706A3D2C6D3ED1146DD67EB02C8F3365E8917C8708109E97047CB85989E9F1CBB6675F4C1BAF4BD9BEB297149BBD8760DA365DE502ABFEB4B356F93FD00504B030414000608080064500D45DB0835104C010000330300
310
00300000006662782F45444638423746352D313241462D343244442D413835392D4135303339383039393636432F636E782E786D6CD593CD6EC32010845F0571B78D1B378A224CA41EFA043DF48A6193D060B0F8A99AB7EF92D034971C7AEC05A1D98F99D5C8E6BBAFD9924F08D17837D2BE659480535E1B7718694EFB6643
310
C94EF0E07DBAC3287172869116990A7E083E2F55D2B097D92654AD71A72A06883E070511E5F29258AFA44503704D4611E609B4064D6E20DEF610701514A733494720AF2FEFC44F1FA052E45D7111BC2B198297B326DD4194282B631C69544798652B73F21AE2A9D532C9B66F7FB21EECF4EB44CA839FC81C0C29E1232D2715
310
75A3167BE41D0E058F29607B154AE705A890CB628D92094BEE2EE095113C1B97D643650D161F90EED7AB6140B3CB4CF06466A8840A2013682A9E583F346CD3F4ABB79E6DD96A8B77F6BC658C7705177CF2DED6476803C12F447997C0252A7ADE95F1A3FA2A47B409D8B50FE73F148905D4D46B3B378FFFDC4F77F9BEB1AE80
310
7F81F806504B030414000608080064500D452B120B21B905000005110000340000006662782F45444638423746352D313241462D343244442D413835392D4135303339383039393636432F6F626A656374732E786D6CB558698F9B3818FE2B88FD4C0809992615A1CA31A9A26ADA51A356FB61A4C88061D831876C9866F6D7
310
EF63300472B4D9AB520336AFDFF3790F8FF3E19030ED95721167E95CB706435DA3A99F05711ACDF5B2088DA9AE7D701D9E6545874CD75292D0B92EB775D7897856E66A2BA021295971B2BB59FEAE099FA654D77C468498EBC27FA6091990B2C8022A5E060129C8200A0F036B5013F6D9469CE4CF274C73C2695A4053ECA7E0
310
A2D54A59FDE550375DC794DF5D47FE2AAAF1752AB3B2A72F3F4E454152FF4CD8099BB165AFEF47939931B1EDB161DF8D2C63B959AE0DEBDD78B8BA5BAD668BFB19048B828393D284D350773FC2373CF61DB3FED46AAC14BFA4929FA529F52BFB6161A5B3E218D09CA601E2185301691DAB87FDA5257DD3F93C966B25B2BB7D
310
9B55DD131D468DEECDB3AB69E6FD0113C42DA8E0824A54D5FE5186D6F81B1EBDE6651953DF62A125A4A03C264C63B1C7097FD35D904A12D7E9B191E8E412E1D202DDB58EFCBABA22357E8DDD4B5A862563129ABA5B217B0FFCD342549AC57F527E591A7442ACCA382DA6CAA0E22DA7BA3B73CC6AD375E4633C521F6B476A21
310
2311420E33EBAF2786AE64EE6DD7BAFB69E31D76321F2F0BCF7996535E48F8005A4DE09AA7F492126BDD14397900C6F47C7E74CA5778FE33D2F7A80AE2C6E3837DB0959482935484194F109BC1B0FAA70D9B17A37D3B7F413D3BA13EA76977FE11B163B6CAF60BC6B5F8015C3234D37F1FBFBECFBA48ED84CF755E9160191F
310
2B57EE7CC2507A1EE2140191A0D458862DD4F2D03BE8EE169512951DA708735B879CBD38E62BBEE3B7E68D6A5589EF3C5304F4A4DEDE50F9E1CB2A2DA0DB15B09CD5C94AB032EE9ACF27FF49CE2CD6BB4FBB9287C4A70FAAB0AC6918A77181DE79046F57A15E207A16BDD0B71F190F60E8791076DD20244A9480B7A5CFA5E3
310
A3A659C8C551724F808F7351266B9EF30B09304276EC0EFF8758F8943192D2AC6CE4B68D49A2B72D3B6A72405ED62E1E8F4E70CDE96B2C678B1E454F51747F9FC7B97462DB06DBCA3DB862DDB7ED67C014F42CF3083B1279C7FAEF672CE37BEF6D5F97461D68C4913EDCBFF7F1AE5C604A2E48810ADC4D0D523EDF07711896
310
0285F8825BBF6F57DDD0B595E5FCA5C9A846629DA436CA3592917085E7462626044ED0E9B3741FA3AF234F2F0AEFCA3E15202ABED78C129485FB98B132D9873143D3DC2724BFE2B1FFC744AF4CF23D49B2322DAEC8ED59D778B4F15F635E0F59E20729FC67DDDD554F63892E12D0E008961EB1EC8A17BCDA03C872652FF0DF
310
3256337B68D8A3E5D298DEAD97863D9DBC1B8F278B3BCBBE6F35AA463CD7699A66B72C209E68D24EC96315E86F5B24A1AA24BAFB400AF1F4B1CEF1A7A87E7EDB0E30A93B26CE20C3DA83DB246734A1694164FE3CC817F69560D0E9F1A8F7B70989E80D5CBE7CDC9DE8809D1BCE3DCA5CA73F4ECEAADD95CCC68B4C8AE732F1
310
521233DD2541FEFE43351DCD4DB423F37EBD992EDF6D2686355A6C0C7BB45E1B8B2986EBC564389E4D87B3D9DDDDCAE4546425F7A930C7E670AFDCB5CFD34839AB0940FBAC5B53B3942B15050CD422637180CA196811CD125AA07EDED0B678420570D6BD5E04EA1A74C3E9D77AB02D88C768A3C933C16CCF045201202DFDA2
310
BFAFFD8659548E83731D6E1ABCE04715105D0340E63ACA7211C325030F7D5E4E7015730007E3645BBB015092460C5784FA50BB6E4F49DFA06CA2952BF92DC92D639FB2ABD72F5056728C1FBD6E50E9A604F87FCBF0461D8D1478F5CAA2B5E5B8D11A5389413ED646A94B0E66A11725FA80ACFCB959D6A0A2E979E4A60BDF4F
310
415073350AC2A3EA8223F5532A2DD68F26661A6DFB45CB59192196B77332645EB0529605A008A8503C735200AAABF74F8F3CC3A53AD1363120F0B4CA92244BD562A12EE5DAEE1957ECE009C584CA7B94180D2DEBA94A5075A3DA7B44D00109C40B369A8493169C600D803C9B0254084C198313F2ED5A538DCE06D30AB467D3
310
75FDF7040DC923AFC03255BA2536FFE90DC6AC4801068EBB87FB17504B030414000608000064500D45000000000000000000000000350000006662782F45444638423746352D313241462D343244442D413835392D4135303339383039393636432F76657274696365732E62696E504B030414000608080064500D45F270F1
310
330600000004000000360000006662782F45444638423746352D313241462D343244442D413835392D4135303339383039393636432F747269616E676C65732E62696E636660600000504B030414000608000064500D45000000000000000000000000370000006662782F45444638423746352D313241462D343244442D41
310
3835392D4135303339383039393636432F617474726962757465732E62696E504B030414000608080064500D4508DA0BD19000000041010000360000006662782F45444638423746352D313241462D343244442D413835392D4135303339383039393636432F6469726563746F72792E786D6C858F410AC3201045AF22B36F
310
53E9A60B35CBEEBAE80D244E44489C6234F4F835464A48035D0DF398FF9F8AF63D0E6CC63039F212F8F9020C7D47C6792B21C5FE7403D62A1188E2E60C98D7234A5830286103A55745067B9D86B8A3CF9C7F90C11DE607FB144396D7B6A82D282E9A152AD114D5EF2CB866EEE831B8EEA07A7BB5A8D7D61A2BAAEB7FD5F709
310
21FF497D00504B030414000608080064500D45C1608DD6FB000000A00100003B0000006662782F45444638423746352D313241462D343244442D413835392D4135303339383039393636432F7265736F75726365732F636F72652E786D6C8D50596E833010BD0AF2BFC1660914194724E106BD806526D44AB09197AAC7AF1D
310
A8D4FEF56766F416BDA761E7AFF5997D8275CAE801D19CA00CB434B3D2CB8082BFE30E6567CEAC31FE970C655AAC30A00423CE166BC27640D2680FDA47549B190E5038071E65F2198F0139F901ABC845F051E11EF926E4432C90D33CD251C799F33616C8F6903411B7E04CB0121C2B7696B310D47C68D41C33D55D8145FC7A
310
6B2FE5653AE1DB38515CD369C463D5114CEA86365DDBBE5DBB132B929933AFD69F8ED282F030235E125A63D2615ABD53D293AA8F37697A425891E47F4C619BFF690A4AFBAA3CEAEE3617B3629117C15991FE15D7EB9971A7DFF26F504B030414000608080064500D452DEF20765E0000007A0000003A0000006662782F4544
310
4638423746352D313241462D343244442D413835392D4135303339383039393636432F7265736F75726365732F636E782E786D6C4DCB390E80201085E1AB90E9158D8D05CB59882C21C28C41301EDF2516562FF9F23FA1CF9CD8E1CA1E09258CFD00CCE142366290D0AAEF66605A8942547F193034D9497818940885DAF691
310
75DEB4546F4D11D70F27E04AF037BBF779A90B504B030414000608080064500D45A6967D30F6000000980100003D0000006662782F45444638423746352D313241462D343244442D413835392D4135303339383039393636432F7265736F75726365732F332F636F72652E786D6C8D50596EC32010BD0AE21F1BBCD4AE8589
310
9CC437E80510100725068BA5EAF10BB12BB57FFD9919BD45EF69E8E96B7D824FE5BCB66684A4C0102823ACD46619610C37D4437062D4591B7EC920307C5523CC30647471366E0724AC09CA84841A2BD50172EF5580403CD331422FEE6AE5058F2129FCA3D8B878F04515A44874D231EA834B05C01E922764352D7794D118B5
310
3C382D5396BE69E520BB5CBB73759E3B749D66821A324F68AA7B8C70D392B6EFBAF74BFF46CB6C6634E8F5A79B708A072521AB306910EE11A93F081E703DA41BB703C6B4CCF23FA6B8C97F9AA236A1AE8EBABBCDA7AC54E445305AE63FA5F57A62DAF9A7EC1B504B030414000608080064500D451EC9B0F628010000C20100
310
003C0000006662782F45444638423746352D313241462D343244442D413835392D4135303339383039393636432F7265736F75726365732F332F636E782E786D6C5551416EC32010FC0AE28EC1719CDA16264A9BE605BD47046F5C140C16E02AFD7D2175ABF6C2AE6666774703DFDF27833EC007ED6C8FCB82610456B941DB
310
B1C74BBC9206A3BDE0DEB9F84786919513F438C358F0D1BB655EA101AE723131A146DBDB0AB2F30816BC56E7D98E18292343E87150EF30C9422ED10D106EC520A32CCAC243708B579056E42BC838254D3A06962C010B39CCDD3ECD43ECE9F572A7AFC753F3FC74AA49B9399CC876733C924353B7E450B3AA6D58DBEE762FF4
310
6767A015FD6786D37C43F0C56B94BB1EE7178B5F51911C739A68C143F4299655163FE7E4504F7204FA907CB382473DC1AA511E6484018B0D2BB78435A4ACDE4AD6B1AA4B3DAB3BC638CD72C12FCE997548DB08DECD48B9D4D898AC709A69C1694E349547DCA9FAF429E20B504B03040A000008000064500D4588E575979041
310
000090410000420000006662782F45444638423746352D313241462D343244442D413835392D4135303339383039393636432F7265736F75726365732F332F305F67656E657269632E706E6789504E470D0A1A0A0000000D4948445200000080000000800806000000C33E61CB0000415749444154789CD490310A00200C03
310
73F4E7EABFE3A05D0405373D28293794125A2DD61596473C0FA08858ACE5F9BB73595C0E20607BDFF2173D9CE8000000FFFFD4924B0AC0400C429F9AFB1F39338B32FDD0AEBA6A0381208806AD372401437CEAF9245485CD1DC0C00E962E3657B8E7FB69BBFBC659B86D9220B4CB1D65FAD74C000000FFFFCC93310EC03008
310
035D1BFEFF63E84012554D86284BCB80301E7D3E00E06A3B0B02E0131024C1DD8736B3A9ED154AB5FB1DFAF35EFD48CE5EF33B1C1181CC842450FC552176E7060000FFFFCC95310E80300C03CFD4FCFFC1555486A445A21B03C24BA478F4257EF501522A14BE03C1F60ADD36A75D3C0AC6ACA69A8CDCE7BF42D2E34AA79FDA
310
FD7B2F29C38E002022E8BD2F008ED6B00D05C35E3BFFD5050000FFFFCC96390EC030080467252CFFFFBD5E8714B19DA34D8A4C872890D8E578618089CE36EAFBFFE02A7A29E536F58B4C52625E25C1535FC83CCD32435DD339E2B1E104DB76886D9BD61AB6B14DEF7D89BF18F523825A2B928888C3183F66070000FFFFCC96
310
B10AC03008444FAB19F2FFBFDA2107C10ED592215B3BD4F14038BCA7F8B13B5966FC0E063343738765E8DB67ACB6BDC2CFC7AD80C01250A08CC57A341E152209C52DCE19208931064882E40D41859F00C4D2AF221051A89ED043E1EE68EEE8BDEFC1FD415D000000FFFFCC96C10A02310C445F1B2BACFDFF5FDD1893B61E76
310
5DADDE04C15B42602EF366C80FF1FC0E86524E94723ED23ED93E2596CDF8A3F25F6ED3323EE677181EB06C553F88689819AACAD58C9B19EE8E7B102D6811F4DEE9E3A9945222E58CEC0FA288602248CEACAA5C96855AEBDF35C21D0000FFFFCC974B0A80300C445F3F2BEDFD2F5AD1D01AEB425B15C5A5B8497621216F06E6
310
A36DCE30C01310F5E15535BCC4AF47928E1C77E9F7FA32B514541511619C26A4019048697382591555A52CA55ED11CC01883B516BF03E09CC77B47CE191121C681BEEF0821FCC61156000000FFFFC457C10A8030087DB3CDCB2EFBFFEF1C6B95A30EAE261D3A4490200A0A82F8F4F9D3388EFDAB880F0881C1CC36C30CC16E
310
807CF39FECC5EC4D69C3F63573486B03F97329A8B5AAF62D202206F5F6053C6B6A6C830391EBAFA9D733E63D6412ACEB829C33628C482981885EF4EF3B39000000FFFFC498BD0E80200C84BFC190E0C4FB3F2852FEEA2020123707593A909096EB71E57E6900551DC39D316630FE093AD08C9659C96FEF66025B5F62DBD717
310
C0757D2DB8BE749DA921486B84803F3C22422D7591A09ED82441FD58945A21E74C8CB1D5DA656DA394424C892082738EDDDA2FD7F9699D000000FFFFC458310AC020108BA04E75B1FFFF658B978AD2C1A227A5D0CDE96E396E4808499610C02963647E010F05F80CE044822FD0F57CDD0EE9279BE9230911414A0914B6DC6F
310
F45F743298B1F672AC99C3D11F945A71E50CF72404EF3DAC7538CB018A600B017B8C4BD4E0060000FFFFBC58BB0E8030083C1734E962FFFF273B4AD1E260C1565D8C895D48089094D75DF8B501EC784374AEFB9628A28A1EAB9FD7FFB509FA62DFED5CDFF898DEA65F243BE35F98C19951B416BF62BEE37D0301F6053F8E0E
310
C0A007C5B4F8AA8AB215C8BA6214C1384D2022A8022925F0C288714608E14B8A5FBF1D0000FFFFAC98B10EC2300C445F225361B2D3FFFF482A70E2A6434800896CF562C91ECE8375A73B69F6EA8F569E0D2482AAB22C1742F87CFADC1DD49F7B66B9FDE81336E8FB192B40A3FF520A963339E766FF9E2FDC1D2A23F90BB167
310
1E5DFCBFAF7D638F49FB820044629385BAE3E67871CC0CD51BAA5744846D7B6066ACEB9D94D234983ABB0E000000FFFFB458390E80300C7353D4A1CADAFF7FAF5FA89A0806E805A22021866C1EA2C472EC2CB559DC19EFCE2C7DC8F4AFB3F039D64DA4FF49EA6784E871E5D9532A4B6ECB3F148088AABCB7418CF77FBD3262
310
40196300DA0995924254212AF0DEC33907918C182398192104586B7F27C1060000FFFFB4993B1280200C44570BB1A0C6FBDF100BA9B2C102017FA88D076018864742DE7E68013BE69B93D9FD9C9F4DD8703678C5CAD535EDB28FF6E5BD54834740B67D340340822210499A9764114B7D9772018D7AF308EAD9733A784D09D3
310
A7E10002000A1196000A61AD85190D5415DECFD018313957B4F25F20AC000000FFFFB4593112C02008E3EC828B83FF7FA55DA4A7E8608BA2ED756907CE955CC024FA9107D039FF72F98838BCE275E7F4789BA8EDBF978085C4A275FD8DF4F964E65667BE4F3975F24DCBF685F5EFE0D0A18029D30028C328A8D60DCA9C2152
310
9401B368C16C06F610E02002EF3D38E77E93840A0000FFFFAC99310AC0200C45DF5007EF7F490FD0C141D30E31515BA1945610044194FF135FF47708BC89EF132819192A2D239FD904ABF14336786B008334EBB514A47DFA58CA57F187BDD375BD46BD55009311FCAC8D25C6120238449F9DD941AA106324848D9C33292500
310
3781ADF4E54A1EDB090000FFFFAC99DD0A803008853FA331E8FD9F76C3D955732E8A8ABCD00B11040FC7BF5F01D08B9FF3E9E46951454F60CC97C3DF6C3F30C10800035AB3BEF679CF770AF7B4EF8B7EE587784812114C8D5A0BB21CDFCB8D35259A6A00011E3DCCA273CB792E3B000000FFFFA26A0280CD84B1B0228C8564
310
7CD43A1FD3AD68753E321F4F23106F1790848480C00C28753DB4370FCDF7A8453ADC6C7844A35503B812054C9C8181818181918191119118FEFF812C62F9CDC4CCF0E3C70F064E46460616165686BF7FFF303CC748040880DE2525254100000000FFFF949AD10AC0200845AF4DA4FEFF2BFB832D64EB61E1DAA8986FBE28C2
310
BD4744E4F9CB53C7E48F62218476E060BC373C1A80FFA5BEB53D22DF6D80F52498E65A0FD763027443DFF45FD0ED8D719A78847BD72854ECC184F60329113666A82A72CE1011C418975A780C51010000FFFFC25302202F96C0AE021678B0C11DF848D6FFFFF0E955BC4911A5D187CAC756F463B403A85802C0BC88DA66418E
310
7CA4D63EA1DC4DAC388C0DB59891919181E13703C34FC61F0CCCCCCC0C7F98FE30FCF8F9938193919181958585E1F7EF3F0C4F9E3C6590969662E02461F8183541A0B61F00000000FFFFA499D10E80200845AF39163FC1FF7F185F21D5D68359B261B3E5138FBA7BC103FCFE028808CCEC28D597FD07FA422B0CA0AF27DE51
310
16BFF6FF930670E7DAE8391320C8FA48C419A1EFB8DDCF4362E38EB427142BC839E358EA889A790511C13683AA42443E99A07BA4E387130000FFFF9C9A4B0AC0200C446761EF7FCF7A827E32D385DAF8815A14B2314188090C7964193E0BC21642C6993E26D54D5034D573ACF556EF870D7713E30FDF574C6F65EDCBB7804B
310
33B705C5ECAD3A17F67E8CF174B949A328617786525702529260341CE7098A191819F618574BD79C070000FFFF9C9A4B0AC0200C44C7B1981B78FFF379001786942E54A462BF6E26590812CD53067F13C0D323888024CCAC39651DFD1FB08FF57DBFA2C1BD8E22BF9F33D4B51F3D2441F617BF9B3ABB1FE673BC24C0030D66
310
0AF4BC2E06502A36AD469A27B19B414B4110814840CE192925C4185FEDD7D538000000FFFFA45AC90DC03008332474FF41B34129F491435173A86AFD361FB02C0B7912027BEB5D0F4A8C606698597BF478DFB35AC207CA54001D6F77F0BF87AFA8650E626EA1676FF31F05F0B0FE4110EE80021AB20B6854040E10615C66D0
310
532147EE17A49440444504E35EDFE0060000FFFF9C9B490AC0200C45BF26C5A5F73FA3276831A40B67895DD4951814CC8B3FE26028C0F7E64F55C144B89AF48BC093874E1F05B6535E6B90C566435901777BEDFB07F89C9E30B5BBBEF2CB732E26C6837BC8B6096C07DAE6B5D6CFD03152CA160422D2E167C920A11A9CAEA8
310
6DF6602E37AB292584101063FCF2F8B1BC000000FFFFAC9A4B0E80200C44874A2CF73F25DEA1A52E8A0405A326B2817445FA795DCC7C5E01448495B929682E58785A9BD9B26579FEA553A127A8EFDF7FDC6F287034C1426EE64408B0A223F2AFC5BC69907B72CCA7BE8F9919A255F550041A2394B4AA9101A20222771D6B29
310
C879033323A53490EDE9EC000000FFFFBC9A410E80201003BB35F20FF9FFB3F00D18B2091E90450D62BCC8853BD30E977E0E40DDBBA594DADF6FAF08B455C4731E7BA0EF0AFB03FCF9AEA34EB2B48B426856036610DF02D03542A7F9C310140B0030ED538A0126123913AA0A11819B1DE21611C20AEF978347BE9470747600
310
0000FFFF626124A6DA86024646C8A0042CE090A72B21E620AA017C7512A1461FB21A7A2400B8DF9056F432313331FCFF859E9351EB7D8A4A010289E0D7EF5F0C9CFF3819FEFFFF0FC9F17F2089F32F333303D37FE822963F7F20DD70767686EFDFBF33BC7CF98A415252828194A16200000000FFFFAC9ABD0E80200C840F69
310
256190F77F489D19F871A104047411269276A0F705480F9276E47A48B150EF48F1CD0580E683759F3923E0E3C87FAEFF16FE0D02D91F33C31803EF7DF107D6828F6F037462CE81E8639E79A9C0A6CACC2923C6801037E8028222AA2EA62602EF8CF33AE1DC016B6D57CBA111D494FA060000FFFFAC9ADD0A80200C854FCEDA
310
93F8FE4FE5431879EA42B34CE907BA1BC260EE636783EDF53D00C022F74BBE8B2FF2DFB26F92DB7B7BB2BFCE04BFCD0122D069AADBC08DF4F780F6FB3E4EF27FF5D9E364029ED7C4AA0A0C0073D54712122356636044120712A3B5984380F71ECEB916C6F1CBAAE037000000FFFF9C9AB112C02008435339FBFFBF6A27F5AA
310
74804CD6EAD5998917950BD99A01AC491673E6D68CCEDFECF6CFBE803F021860F92BB2250AD6AF6A400188C7B923E219516AD902FE067480FD3503402D77A01DDDF307B5548345834AE1E6113B75A0ABE26E0D12044104295DC8392FF7053C0F000000FFFFB49BC10A80300886BF5A0BEA15EAFD9FAEAEC56A731D96154163
310
97BC08A2277F7F51B41800C6A451449F22F57B361793B3FD45FFAACB7C006EDF6B1C34066B1BFAAE675D5676BF1782E0CD0E14808054F53122921840CE0DA1B6206B5B6A3D4E49D027461009408584C0261B3E789C734CF3CC380C9FB979CA010000FFFFB45B410EC0200803DDFFDF6B88851D70844CB69DE6C998E841A425
310
D21E4963B0E570B862CD428C709923E3016CC95F677EBEFCB779DEFF5FE0EB3535378836666ABD477753441E8AB76FF82FB9FF4601BA605F2F0A58E7022035F3CE60420140C948BC4260F6AFE23142C78039EB0014E3040000FFFF9C9BC10A84301043DF42A98C82FEFF97AED68E7A98B66BC5AD60612EED2510921C9A7125
310
E3EB1F44C000A86A5146AE4FAB2ACEB97BFB3F596A754EF7FF14DF22AEF5F626FFCB246C39DA62AE83A5ED1EEF3DDF7966D35893FD60FF46FC25126E22E0AA7AC39814BEEF2C4BB096303F07086B8090FA8C51E103433F304E239DEF1011EB1388345D1AE0000000FFFFBC5B310E80200CBCB092880E8CFCFF6DBC417A7180
310
6231DA51920B0B53EF5A52B8BA57004988C8F4F5E9E3CF246404CF30F4D56DFC5AFE7577893710E30954E8074D085D08ED7CC97057040F212C2218B059CFF58C2E91763B92D109D7517592485B422905C7B1F76A30C6DB6AADC83923C6E88AE0020000FFFF9C5C4B16C0100C9CDA70045D70FF83398428795DF83CB4F5DA5A
310
059BE44D6662331E1BA0677F95FFF9DB946E8331ED697D647F1FFF033E67B3023E3FB4526BF29812B858BF13338E10E03D0100945420A241F6AF0C7F798E1BF0EB7D37FEAA1A1385520367D772C84E65B109E85DC31A032965B3AFD77A638C70CEC15ABB5482130000FFFF8C9C4D0A802010851F7908570976FF7BD501C44C
310
1A6B618E3F88E94A0617CA7BDF208C4ED700C949445475BB28EF0325617F6386FE91F8BD58256E9C4C11CF8F3F4BE25306483F84BCC7E91CE8A62F032CB9BCDB23BE8A8F8CD08AFFE47571C749013EF7E55CA49D02F72A104240A915524A500830C6B0A981879B53586BB11F0736AD73C1AE91EC050000FFFF945BBB0EC330
310
08BCE02195423EA1F9FFCF4B17ECC8C1EE40C8B3A9DAC18B174BDC1D1CC85C3683DC14BAF2F7C1F4E011859F09F0AFE2BF81FD09DCCB1D4EC0D4FDA74FEBAF759EA15A508A42B5AC8B21D3940C785550D3A0EB18140829463357AA3698B953FC0D11B673ACF5AEFA43EA3C19B19C33524C28D508D0738F617882992122AB21
310
F72ECD93348580B67DE0358E10916538B4CD00EAF2EE1B0000FFFFA49CB112C2200C867F5A1CEA90B34365AABCFF33D93760A6C16BF41C2C0888E720036C0C7CC9FDDC7F499A9D41D1E9AB35EB3D16A55D275FAF7FE0D7607F9D2DF8F7ACDAB7D4F8470A844D04B710525B58A73A9CA709C61810114404CC0C22C27559C01C
310
76DBFB13F2D7408819BF0F9528E0E7EF9FED49320178EFA10F1AE369C47C99711C06AC2B436403A0A0F5CB9657AA43DFC7BB55FABB39E760AD2D584477F0090000FFFF8C5CBB12C3200C135CB3F101558EFFFFADE40B98D225CDD91DCC23A4A457260616232C73B24FC312503C718CFE5B6FBC8940BF35802B90DFC0B610EF
310
CEFD4DFFD78FD580E67BCA971C9FD5F8FD6DB5737A4C88316226AB945A6D618E032104F0492CEBD24D3FDD67FBF90148157846E03B18F51A6C5AEFDC7B6F828E03661224A1AAD8B6576E16691E232FE614B6171138B429ED94124876FE0B657D000000FFFFA45C410E84200C9C8D7AD15492A58986FF7F8E8B5ECDDA5DF750
310
4090ECC5E5099DE9740AB43F3D401DE852CAFE23C09DEC07827055F5FE04E053993AC9325F44B0BF7407407CCD34C6C0DA27981944A4B3FB09F83744F674F7414460CBF0DE976A73ADF18988B9EC5F9D7E8CF581239200E79EA2A66931F4BA4D6434239C7310116C9B4E2C3F024E45C508BF9AF2D375DAC62ECB8A799E2A9C
310
BE000000FFFF749CB11283200C863F4DBB58ED641DEDFBBF5DE59005950E1A140F06EE200753FEFCF70D218900AA0ABC5F129ABC8A41ABABE400D7CA4EE3A5249FF773FB701E8AB60F64C14EFFFAED23DD8E8A3F206A5D57DE5DC7387E19860F2235DE2F38E762B2EF0B40A4A6EF7B8C31586B63FBDBDDFE95EEB72D6FFB21
310
B256D2BB0D9502DC93AE6D695E0DF3EC908744000CFA38E9633CF2C7EE1A0AF1E8A43211A6E99715C01F0000FFFF8C5C410AC420108BA5E8CADAEE45F0E6FF9FE7452C156A0FEA682DC21E4590C168662662060660F43DBABEF48DD43A63801923CC007FCFFD71FB7BF081BCB9A56DAB603F818F38CF88700412B07EFB0E6B
310
2DB4D6A4F285103BE0AF92365AFAC80A5BEE0684E030C6D09A35BE57A157812737B1A1026F4C4FC38531702EB06D0A524A78EFE19C83525FB2A7A982507324EBED6CDBA1B852C29212D6352B9ABE58DE48F979C471030000FFFF8C9C310F83201085DF9D1A3BA9832676D1FFFFBFEC62272BD646817610E8699BA603616039
310
F2F11E5C7287C802287C8B768420D5668CBCFFF6407FC1FF07B884FD11835B94F66AADE8EA15B35E359675C1639EB138F0E7BA4659963BF04AA9AF6A0F6D62DEC6DD8B792B1889501439AA7B85AEBB047C47CB7F8B45664B07EA6EBF84278819697A429E65889318C370C334291011F4AA61AC0DF0FD60DE8A58FC0120DF5B
310
0042C4CE8998112709CC38A2EFAF68DB66C7EC050000FFFF8C5C3D1383200C7D89B2D881C1DE51FFFFAFAB7775E38E2A4807084687B67B8690072F9FE49405C87A14638CA2D7DC72E0A2F08E94BE67019ABA7F82AC64FFA17C01FEFAA53BA688B86D65F74EF5F17B4A784C13EEE308E71C88E804BC8E13A40E901570D29717
310
7D0900778C0E3D9C730821607ECED515E897BFABBAC171D6AB8DA8D23931E3360CB0D68298B0BC16BCD7B551BBF8FC227B4C2F13736382C6022D0E60E4DAB5EDEB8C83F7BE5D1481E3030000FFFF745CBB12C420085C9B34B1D5CBF8FF7F48521CEA7905C4574CEB30A3B2B8B28A4E39C0A8FDB57B9990B6F5A7827345F10A
310
F807F893CD9AFAC5B2A7FE5F2983944B5A3F9FB348B9FBE4EECBF2A1D3717CE0BD8773AE02CFCC48290F14DFAFF806784B2CFBAD07909C5DA87A4308014404A213C6E0B1F25103E0E5759511F966F71DD65A7064101122C7C1B739ABAFCD02FC1A044D44DE77374519406E37375CD7096656352023FB030000FFFF845C4112
310
C2200CDC302D07DAAA4FA8FF7F91FA0B6670606AC10304288CF508A7B09B6C42603254B6FCECF0D56351F951A897F74CEFE9FEFFBC9F404F0BAE3D8E11CF933C12F1CEC1598BDD7BDCAEB1375E477C21FED35D0FB3D4B7A485D0D9C4401109080A504AE1BEAE783C5F781B9395A0384FC1B641054402E33860592E98A709C6
310
1868ADE3C91B6FD9B6D80E169CF313E95CF01505A003F979B279FAE7B87B0F6B2DA494B933F8050000FFFF7C5CC10DC3200C3C68455E49783000ECBF4F3A46A350A941A1A58F603028EA0B2130823B6C2C63B8D304BF2935DE3F9D56DCF93B57239AC1FF925F1B2F08AF320568021EC826B4F3EC33E964EA4308D8DF3B8E78
310
609E663867618C2949ABE563C77C71C2E3FDFD19DD6A3C95171B20250632A0B586B316CB63418C1F665E8BEE573044969712C330601A4728A5B0F90DDEBF08DEA63B554447BE60E49323C8A3B8000A3FF276268B00C0735D9B67E63F000000FFFF7C5C310EC3200CBC04589852A9594995FFBF28F943BA51429BA403364620
310
850D18B07446B60F739A4FFDC608EFBD8480C2829C09B3B3D02DBA53AD68C12F002FF66A47282B8EACDDC37DF2BF047CDC23FC2749AB1863F09A2638E760ADCDFA7EC7C1C2CE44F9121B780F7C5D7AD2BA182DE0501276A1C7383E31EF339665C5794A7B7CCDEAE11272E7310C505A61DBDE082134E1B4AB26FC2691416FC0
310
AFBFB74948EFBB2473A3954EE56B31FE000000FFFF745C3B0EC3200C7D7C26A2F4027573FF53A517606824A620950ED8160E0D1262C083C1D8F83D3EFA32A853BFDDEA8257450D2532B85F8E85EFFEB59BC2FEB418EE8D3FC23A13EA199E4A821763C4B6BD404458960E934A290AE78400528F6FCD24785A59916B7BD5DB0C
310
A97D15877BE7001F404F42AD15FBFEE6999B037F080129253CD6157040CE19E7595572A482C7A2CEC757C3FF1BDF6E035DDE2206EF1D8ECF31E401C00F0000FFFF8C9CB10EC3200C445F02D9C2C20F344BF3FFDF46CA5029810E60E19028EAC88284CFB68EF3C956821F42E03812C60E54638902ACF900C51790522AA61095
310
B97F91C09B764F3ECBB7A2C069E0BF42F0EA0C7C5DDF78EFD9F722E0C83F5F0B41A93A6AE8417F00FEAEDA2FE7FA8E1A6E86110C23CB6B01284990F32936D36499E719E71C3146B6ED5356D1E8CABF605F1442D93BDC00EFC05744B02581BA4508A431D0CD717E000000FFFF945C4B0AC320107D634648415C790069EE7FA4
310
E6168D2D14A70BC789B449A12B3782CA1B9DCF7B23DB043D9E74F495F000114881698C13594368AD82DE13FA4F0CB00759DDB834A7EF9DB1AF46CC3CB52EF1506A36848065B922A504E79C017F54BDB3A7DED63AF3F33A0E7B3D03FDDB3064176C1261E20939671008B775357FEFBD478C119779C676DF5AB027C32DFB00DE
310
52BEA60003330FB2B05FE03BFDD84A8DE7203BA82228A59868F40D0000FFFF749CB112832010441F03A1B1C1DA31FAFF3F674C23642624C58122624107C5CDDEB27B706080CA1445F60C4841C634276B90D626B5297F41E91BD69F93E20ABE0CD9EE731D9F74FE23066FF39B3C867C188669E0398E745D470861BF0A3D819F
310
74BEA9ED0D9D2F81BE677E1547B526335DCEE5A5737A9E27949224B0D6E29CC318CDF25AF09B6F805E7D40A90E10E127A46B30FDF004A529BC96F26512C41859D7377DDF03F0070000FFFFAC5C311284200CDC20D65E49A3FCFF75145E213A842B90104E6F6CAE64683281EC6E7632B144106EFDB5989015029CF115032567
310
8C0F5EC01DA73691C722D68EA3AFFA3DEE606638E7302F335ED3243C5FE1BE28FC84C4099CB86BC18A7BF71FB8EF0F570AA3B3D289089401630678EF61ADC5FA5E0110420832DDD332A6A05ACF61D43B54C16994F0FB7E7C23EBEC9A3E501F40B5F695B662DC24820F000000FFFF6C5B490EC4200C735B893E62729BFEFF41
310
7C63AA42A5D2CC81601671E300521483E32CF06750A6E35EB533255125AD162355952DE33CACD83BAFE25E059F5A886125EFA9E0DF16E7430C785382733B8EE30B11018086EE733EDFB67759A81A299FEB6CC79CF627804F5E7EBFB53FFB025852223D17D52EF2C1EF3CE1BDC775853A5D353482087801BFBD14BA60770EDB
310
B6D2F723F8ABC5FD510714C7B39066223E5AB91F00FE000000FFFF7C9C4B12832010441F909529532E63990378FFD3E835CC2A9AA2B3403E129315AC80A96EE8F95073899609654D27E4A7A5608C81542489801B63113E49C3BFC450C9C0085C8AE7D78DD7BAC7F3DB8610F7BEE7310C745D572472DED58DCFDEFD6FC07538
310
4B3DD6A07E817D32392381D25E42B2A92E8F815BDB328E23F334B33C977D2D7B003EFA1165F898755C34D706EB1C2A64B8949D408C4CA22CE5A4D7563E7420110A3F8CBCC739C7070000FFFF7C9D3B12C3200C441728A1A7766AE7FEF771B80433C0A6508CAC38E404307AFA212198750011E0C0A0976F58DCA7474D401C47
310
9FD78FBC972A96246EEDFE26E00FF8E65C7F5A7D95D0536B45EB0D31463CB60D3967905C2679675D4285AEC0FFBB7BDEF7B7266E9561A13436DC48CD41A68BFC849152C2FEDC711C2F9452404A4B1DC6622FF0CDEA4E8DEE1BBE53F00074788457E5E7F4947D74C322848037000000FFFF949D410E02210C459FC68C6CD01B
310
B051EF7FA499530806A42EA450758C71416045483EF0DBDF5276C0C87805BA0F683900A1D6CD780FD016904B0179D6B6538BD5F2BDC8E7959F55C54B37528AE45CD08C971002DEFB1EFB1EA7BE18E0ADD4FA47FF6503FCC07E15743B8752E768B5894FDBEEBA49ADECA789CBF9C4F1E099E7856B8C6FEA9D01DF8C0570CEF5
310
0F30D7051FB5135ECBD32BF81A3391962974AF83CE1F000000FFFF8C9CC10EC2200C867F1CB799C9C1655EDDFB3FD5BCB9701747A9870E6C06313E4043D29F86F6CB4F2D33C37B0F8A11C65A00099C0F6FF4019900024057C64192D52A2AC13A1944B198324278E315A4EA2912FA738FF93E631CAF60E602738AF80AE65433
310
FC9FA2B7DFEE5AF11FFA1F621B8D262BA76F926AEB28C15AF96BC8BBAED374C3305CB03C16ACCF55809AB2DEE170114EC6C039D7843B2AA0AA7EC6770DFEB60953C9C616CD273E000000FFFF8C9D310EC2300C455F05586D97CC50F672FF030117A02BA402C2103B75A98AD833F95BFEF6B71DE732508DF9D62CD15380E501
310
30ED0AD804AA881063CC7BEA4A03CB90FF72A5DD83BB6AF700FB43E6FA104251F88A92E7BA76FF0B38BF405F0BF9ABD07FBD9D73BE39E052569E9C20772FF56ED076A3FAC993BAA939F53DC7AEE37CB9320C375232EDDE3B02C84E689B7606BE5779AA8AF2B185B77F52F0C751AF9DD94C819B1F00F8000000FFFF8C9D3B12
310
83300C449FC74EE014843EB9FF9D481137A40124A5F00F68C2013CE3B1646957B2BCC1950333C5D451134B71598C220DAAB41270058266ACE5070BD74047ADE6AD4928A968F188083E781EC3C0388EA82AF3FCCDD4AE093396DEFCB9277F95D6FD037A17EC7F5A7F8C3C691F39D7EE6FFF1E945AAE7388B089E796E56DCD40
310
1D091BBC9EC44F647A4FC418914D487A1A29A2F67D4FD7DD3950C66A9BE4143E1BBF3D62D1CAAC963C48B2AC0BA6860F1E53AB135E3F000000FFFF7C9DBD1683200C85BFA01DDA73EA8275F7FD5FCB8E76B4A76AB043403C5ABBC2C04FC2252137A134A858560A515C232276FA45F246A80A224A51840839F6BE6D503D23B1
310
9C99056FF25D9FE85341035575A76D5BBCF72B0369FB23E77F23EF4C0976FDDBB683904F8CBC53F9EFC63D40FF0F1460AB083033471ABA525E72E9B7699A70CE51D79EA679300C6FBA6747DFBF18C70F0B0BD7DB351A8169525911523EC05EF896E36021F2E445A95A312F278E10BD37802F000000FFFFA45D310EC3200CBC
310
380CEE96EE644DFFFF3336E25440070C06B56A87AE4858883387B1CFC2B50442C919594FF1A8543527A89B901AD88BD3AC60FDA15BE48273AB49B2AE7AD78FCD0B7EF7D8BD073323C6F846F9B5554BD9E89F20EFAB03FC847DB231D1FD27E031838F61DCE6435542D68FB0AA5893A8D6E989087C633C8E032925C4F3440801
310
F76D53A66DB598799D1618A3BFCA9EFA2399887416404177A4A5989117000000FFFF945D410AC4200C9CD51E5A5AB62FA8FF7FA025A06DDCC388C46E29F424286820D14C46920C1FB0F013E37943033704D8E380520FA11BA02B483923C688711A99AB9E1244D8734F0B3F8DC21610C2C6277FDF71B45EBC96BBBFF0F7AF46
310
6B08BD929FC1DDFD8235B027C577F37FC66264AA7B965391B5A273EF6BD12D72FD7A2A9C67E3C9659EB17E5738E72022EDF69263B8486CDC6E3E98DA66C935C6FC83E16B4AC3113F000000FFFFA45CD10A80200CBC4DFD00FB03FBFF1F0CB47AD09D664144820F22226EC39BE7360F58944F2582440169F3B4011E063820C8
310
523D57D78A2A861078CD8B081D3A7B03A735618991346FCE99DFBDB7E08CBFCA1FC65F5A5F3B61FDACFC17C53F43D1BCD741D8DD4B816A95A7770E5A6A7D60830793B3B2BB8B1190E51BA8714B7CD95A5CA4B6C25774EDA4E70F9C000000FFFF8C5D490E80200C1CC02392F002F9FFBFF013027A183623014F1C48E884764A
310
535AC806A02A03910341BAFEC67ED1810F0190F202F28B619B52D8B586F727CF244121D65A3877C018F372F905684A715C8AF547D953D7BF3200F1999FBBFC11EB178C1FE2E8F75254053249C31A08FE3FCC57CAA46CACAF8177192BE6D6761663E2A55A69ED4B6C302989244ABD81BC1E003C000000FFFF845D4112802008
310
5C663A684FF0E0FFBF58197450508BEAAC33228BC0B0232CA04A37EAD7A5EE01C48C0042C335042718DB2E167B8E5210E38A102BDD1962404A0939671060048EB97CD609DC4EA2F702FAA4E087A2BF62BD87BFDCF6CD207A40FF016F120CE8EB1113D3E719425B6211A0D53D50C87A03AA21507B58BD38D365B366D35CE71A
310
13D54F21569154819AF168F278010000FFFF7C5DBB0AC0200CBC8A5BDDDDECFFFFA120C60E466B126D16110E0C5C7C9DC178A0039B5E01C42170A1BF71FE7B2928AC008E2C9E7007E49C1163C493126AED8598D7926C5B35EF40BA20FB877CC1BB0E00BB657E183DFE61D6DB3E4C2B82F0649776671F08C38808A0863A7116
310
23FC065F0B597370CE2D0FCD6DFEE1E959C70180170000FFFF845CD10AC020087490CFEBFFBF74B1E0F6A033B5DA9E8A0AD22E8D4E4B3382F4FBB1EC013C19A42A42932BFBDD355F5D846A97C4E89999EA59A72B5E5FB8FC81C1B77BCFA51B6A686E171FFEF88AED79630D4BDF59FD0FF0D1E45D75063A82B9EAA740C59BAA
310
409AE620E18FE21B0109083A41F0B2BBA052D8E2370F000000FFFF845D410AC0200C8B32F1B0FDFFAB3B8C991D566B0A6EDE2B2D2426058BDD00F84EBFC686AC0A408248269963C7DEE513B9276E1B0D2389520AF6E31D71CEF6B171F77C97FC7EA31484192040889B7BEC027C44B78F40FDCBB9122134785ACF5772620D6E
310
0071159BC79B819E122275C22484C0417E49546BF59EE0010000FFFF945A490E80200C9C122F5CE501EAFF9FC51B68E20278B02A5242622FD0362184E9F4307400006B2DEE593FD45A00C9E3A402FC6D0507C67EECA20318CCCB84D139A418E1BD476086217A46C7DE1FAAFFE0AB5C11AF31501DB25A358B5B0CEFB0BE3E4C
310
193576E235C1250D64A72374F39FC2286F910B3F8BB278D9090000FFFF845CC10EC0100C7D46626147FBFF5F7473916C87671BD686534BE5251E954ACB01682F53FC021616D8D04701F4BA249F4518A53055CB3A8B2332CC3B53E29D5F2B4288C83963DF3D80A75882E07FF21B89D20953E7E8045C8A3C63EA6E7DB411F185
310
662665452E8671C87D12B98B8DF259F68A1916C37BFFCA37000000FFFF8C5D410A0021089CA1FA45FF7F652B7B48C36C5BF424358760C41141AB80FEEAAD5B314940B4D2B4625944E65CBD76F6C678D622C5DEFB5A57623DE852E6383309D4D6BE09F77E222032E41FA70E1BB3C99574C5FD6ABC59643D5E5EB47E7A27B9DC
310
20B72C9024DF3D873825C0EC050000FFFF949C410A80201045BF59D4C07485BCFFF144A916922DA6B232A3562E443FE393F98CA8758C119552E8DA16D6DA53B921A12F4BDC3C7FC6384D0821A0A91B504730660033C33B87FD3A949C122A10119C77E8998F5734AFE9BFB4F01FE097A09F863F6894AB8FF7547F077DE52B8D
310
BA3348DE9CF59737CA1F0B48F2B9B6CC2E5169AD2FDFC8AE000000FFFF945CC10A80200C7D927550EFF5FF3F5747838284CA0E9B62D88A3CEE5D84E736C7B69747799C7318C70967C36BC891E7FE766EE8F0AA75D79286EE30F430C66259A993A7A0A035D596C771C25A033F7B6C21D0A74320A32206A8F37FBAA490F745EC
310
F3713D616F811E28255C4AABE8D915AF32F9AF9E8FBFE4DF000A013166D998742E000000FFFF8C9DBB0E80200C456F141C1426FCFF5FC445127904070882560253C3C821B7B4346D290913423CCD1173E2C087507EF3ACB36950D4C2B12B0529258C3971590BEF1C62041867E0392298E6F43ED0874E7DF819A3E1D787DEF3
310
B99DCBD0587FB29FED0F6852618845307F6FB7C5DDA3A0C7E0D7FA3F049FE41FB1AE5B33C9FD060000FFFF8297007C7C7C0CECECEC900DA2D0A1E19FD079FC5F3F7F414FC7606710161161101515854EF522067960C7993330406E1483CC037033BC7DFB96E1DBB7EF90858D68AB8789AD16B05501D86B031C098694848506
310
E0018A25E3E3CAE594453E666982CCC65ECC13906380965CFFFF33F0F2F2A2F801000000FFFF9C9DC10E84200C449FD9C22A12FCFF7F5CAF8B078D1E0A898BA8593937044A679A36CD20D9D01843D7B6C46F0421A9684D2A97DE807D5B9C730C21A80843D479BE7999D34CFE9A5A9080B534C04B843004C6CF88A43F06B3D7
310
AF727EBDECAAA1B4920E0EE83ED9A7B03FAC13C4DFA1F4DF877ECA0625CD6BDC150CB43FF7AA2D65EFFB9F6B6D000000FFFFC45D310E80200CBC0E84057580FFFF4F1619988450874605C438DA85A4C776B9B469E02A8ECF90D9B1750EABF760E6CB50A9145956A8B5867316442416EA2921E7D48C750B17600788E43F3A98
310
B1CC33C21610638499CCFD82B8277A707E9780510C7A8AEAFE48EBBD5ADE516AF37F935F734C6D9B5963A74C94528F6D2207000000FFFF429C16CEC0C0202424C4F0FFFF7FC42A923F9055C06CAC6C0CFC7C7C0C6C6CECD0593D48E4FFFD87BE218381E1CFFF3FD09D2A6C0C90830B5918848404199E3D7FCEC0C40C390A05
310
A5574052024030F055D7C42716A8345A66410423720E23AEB826560F35229F608900F70764A289938B0B63093F000000FFFF9C5D310E80200C3C8C180914FFFF455C3B8889C1A146053418994A189AF6B88381D26C36790F72843007F9861C72B1336684B50E312E887115F0CF52AC2C95D8904405A0A0750FA53A10791033
310
98F9E8383A9C2F583F2BC0E5228FEC7E366784AFD97FCFD1653EB0FE15C83FE07E586F015B4A7B7323D471A524452AE5D8010000FFFF9C5DC10A80200C7D36A8BCAE63FEFF9FD51F34EA9075D0594689E44914863E9FF29863CB084044706EC434CF3000281627ECAD85F73BD6754BC19BF7EC598AB27653E975137440630C
310
0666C822101100477010C59595FED39F14C836A8534A822F417807EF45CC65764B37BB6A2C19A93CFC3AF7EE9F57E082E240DBB560E614E8A3ED040000FFFFA45D4D0BC020087D31B0B10EF9FF7F64D7AD067307B7A8F6C9D65110D1A7601AAF035328332B28465F0A59225822C49890E6A45BC04C1973D38489368404005D
310
07220BCF1E21048C93412FCAB8B5EB5CCFDB8B634AB1D40E37F6CFF4F21D3E27C15BA03E56EE5FF073E59789F66CAF8DCA220237B8EDA3EF3A342B000000FFFFC29A00040405183EBCFFC0C0C2CCC2C0CACAC6F09F01B27BE8F76FC8993BFFFFE1AA541109E2DFBF7F502E23031B1BE49C1A010101862F9F2127553132422E
310
3D842C5640443AAE0E19235AEE856E5C8368C2C8FD487A600E624491404B36E4443E23A65E3897889281889C8F29865F3DA6BF100076A104FA1E4E00000000FFFFA45C410A0021081C0B7C4AFF7F9F1DDC8366A12D2CAC3027E9A2624933961D2FCC8C3186395B0308F12814992630083D7E86CBA29C9AB498C12226E7EECD
310
F6E910082233E8CA7B9DBB7F1967A8624BBFBD53383923AE8E136EB598CE08E504BFFBAE81473D4BA9607E259F6EFEAFC9A780C246FC3CFF2F7B000000FFFFC27A58B4BC9C2CC3B56BD7E099EB27743CE0EF9FBF0CFF19FEA3050C4AF0A204F9BFFFFFE0ED0106460606061656064E4E4E063E7E48D7F03723242261EB0831
310
CD43CFB6FF2143D4D0154A8CD0F58AC8118DD61942682598BB91F4E3CBC568C532692D7822D4923CDE8F99309199FFFFFD870FF2C18491E308000000FFFFC29A003838381974B4B519AE5EBBC6F09F81013E26F0FF3F6AE43362B110622B8CFA8F54153030307040B63A09F00B307CFBFA8DE1E7AF9FF04522C8CB9730E31D
310
12E9C8342CE21991FA709869085F4EC6174138221F4E123603591D5673488C7C94648D2FF291A8FF0C90BD85C2C222A811830400000000FFFFC2796790AAAA2AC3E7CF9F191E3F79023DBAE50FD600424B0628009633FFFD829604D0128595959541584498E1F9F3E7901BB2A19B16991899E02E6764C08C746C890015600B
310
70DC62F8229F702EC627874B2F213309A845F1223E3968F8FFFBC7C0C7CFCFC0CBCB831427A800000000FFFFC27B6B98969616C3EBD76F18DE7E7D8B3350F125008485FF18FEFD82F61C20491D5215F0F1317CFCF89101B6349A8119621A72E4E3351CE104342E72AE421743753B6604A0CBE15647D7C867C466278A0791DC
310
CFC8C0C00039B6460C7A542E3C1418FFA3F40400000000FFFFC29B003838381838383820AB7F98995172206C912103C37F94C50658C17FC8A6F3FFFFA167E43032327032723208F0F3232D2D832C496366C2DE1E803A1F6B2EC42E871C5C98114C7A4EC616218CE84C5431343623AA42A2F561442ECE848160FD830EC3234E
310
0545F239522200000000FFFF9C9D4B0AC0200C445FEC0DAAF6FEC794426D17FE6BA0D22C47FC9038300A8EBAD36317D6EE20FD47494D9517DF1955B94F2AFE265E91333B9286103066C3390B50557ECC2BABC59D583BC71ABB45C77E165FDB68DF0C6E58EABF700934CC21E520D08D39B617CC88E0FD313C057F650C800700
310
00FFFF229800A4A4A420B9FF1F62A006BEA61FBE6C1A09638348EAFEFE855C6CF8F5DB57861F3F7E40CEC8E7E747CC28229F4C0E85D8230D3B8D2D41604B4CD8731F151304C9F244B03112375A02848AFDFFFF9F8197978F818F0F7BD70F590B000000FFFF22980084848418E464651002F0BE36EEC84660681A61406A7CFC
310
87AC18829DF5F7EBD74F063E5E483705B25D0C3A1E006B31121BF9707F1193309042808848450F74846E7C89894479A2D8B8F988C88724143131511CB91F25A41800000000FFFF2298001818208D418C3304D19B935807F0B08CCE3042C4610B4EBE7EFDC6F0F7EF1F0661116106760E76E82EA3BFF0EE23D1918F1E894834
310
DCBB387325FE1C4BB0FEC7484C686C528B7A52239F01598C8141187A011641C0C8C000000000FFFF222A01080B0B33E8EBEB614AA0C72F96F8C66E2FC4B9FFFEFD63F8F5FB17C3D76FDF18FEFFFFCFC0C7CB075F4D041B69441E7822AE6867440438C6A00D0303034EB3B0C9218BA1B1714412563DD803812691CFCACACAC0
310
C2CCCCF0EAD52B86E7CF9F33BC79F3067E130C6C2C07B147839101000000FFFFAC5D310AC0200C3C53AB20F80DFFFF24FB013BA52E857648A916541C9A3164C91D8124E4C8700AA82D84801837A43D41F592EA9AAA40AB4006DEABE39C33ACB570CE810F9675F2758ACC492B10A84D3EDABE02E328BEC67182C8898A9FADEC
310
3FC8FFB2208DBAD64BF92E0659E231B3DC691261350678545CDE7BDC000000FFFF22AA04606080A42C434303062646269C1336B800239C80B91DEA01D836E7FF9044F0EBE74F060E0E76060E0E0E06462646F83E83BF7FFFE29F2422902070CBA14704448CB88824560C3B1B256CA810F90C0CFFA18751C1D6F932A2842F03
310
0303FCC6901F3F7F327CFEF285E1C58B170C00000000FFFF223A013030407A049A9A1AA4684173263C161890BB650C0C90C6CBEF3F7F187EFDFE0D5F85043B350376E50B6C568FE4F1001C72488E41514F7E8B9EB8C8C79D10D0D9442406A4C8E7E4E0C458F1831AFEA8F8FFFFFF0C00000000FFFF22290130303030686A6A
310
32888A8A92500AA0E72844C4C3F6BB33229206C33FE8B574AC6CAC0C6C6C904400B9CDF327D2A516E891C080268616D038E4085705A4473429918F9910B0254C3C7C28F8CFC0003F8A0E7D62941006000000FFFF22390170727232989A98401A6B44240246341A1EF148109E2419600B43FE33303142CED9676767871C60F1
310
17D26BF8F3FB0F6A6F04236209E458AC7224D4C984AA08AC1148091B071F0EFE33B030B33030B3B0A08CCDE0C60C288D7400000000FFFF2239013030407A0506860650EB892C0990221D290B42130452626080B911B2650D960858595919FEFF832E58FDFD8BE1EFBFBF28E622D34812980902450EC3817822039150F05611
310
A8B66092548E7C6616C89A4D48D14F4C5C405300344100000000FFFF223101FC872F28D3D2D460303234841B8902B045024C1C4B0980D19D8359C500491CACACAC0CEC1CEC0CAC6CAC0CFF19FEC30F9F80CD22A2E863404B100C58DC82357289890C7CF2986CCCF020511FA1C8676661E0E0E080ACA7405FEB452400000000
310
FFFF223201C08672A1E9076A999A9A1A83B4943403AE94879A0E9073396A09802C8F1C21B0C40A3BEF869D9D1DD22E606262F8F3FB0FC3F7EF3F50DA059891892E863BF21950C4F0B1C9CDCDA806E093C79DF810F1C1CCC2C2C0C1C18EE58E67CCD21EC78229060606060600000000FFFF22900050231E45E63F03032B0B0B
310
8385853983A8882803FC883706745B50733F8289A504C0E906887A582240B40BA06710FDFE8DB808095FEEC68868CCBC454A0E253B21A03A0305E00C062499FFFF19A0174961CBF948518DA31D809C5000000000FFFFC2910070473CBA559C9C9C0C9696160CC222C2180B0E11CE460B3574CC802D9722620DBEF68F01E271
310
36363606760E4869F0FFDF7F86EFD0DDCB7F615D455C399E014D0CA9304211243A3793570A608409466EC7C28787F97F78E44322114BCEC752026002880C000000FFFF62421640310CAB26747510CCC7C7C7606D65C52020C00F9FCE457637B61C8F33F7A3862D6A40407DC3C4C4C4C0C6CA063D48999D81919181E1D7EFDF
310
0C5FBF7E856F6743050412045AA2203E12D1CD279F8DDD2C8C9067606662869480CCCCF06C016B34FF4789726CB91EB3AA00000000FFFF624216C00D508B0E0C596822B0B4B0C04C04687EC3C00C68B91EAE101B0D730B03A45DC0CAC2C0CEC1CEC0C9C1C9C0066D20FEF8013D9FF8CF1F0606947904061C1180268E214F04
310
9BEC9C8F1A34B8C17F68E43331B0B343EE0FFA8F35CB136E0BA08423C37F0600000000FFFFC2D30620A64440B2F4DF3F06616161063B5B5B06116161C86D97FF1950C214AB9719B188A2E456549A81014B95C0CEC6C0C9C1093FFDEAF7EFDF0C5FBF7D832C47877517498A5C0612D4E28F3AAC00470EC725011BC767636387
310
DC1D8467CA1D11D1C494040C0C00000000FFFF6242B20543123B406B482044112581A50583A8A808C35FD88A60244FA1F6051851C4E1B18F192C986103B190013E68C40639B686939393818D9D8DE1FF7F4469F0E7F76F94E5E90351C4132EEE31FDFDFF3FE4185F56563606365644CE47CDCDD81B7CC4F40A1818FE330000
310
0000FFFF42540118D6A38636C1D2002AFFEFDF3F789B404C54147E4C1C5E40A014C0CCBD888084253C0606C85E46767636064E4E4E064E0E4E4877F1CF1F866FDFBE337CFBFA0D328A08730BB909018D4D8C3EF4A8C5270703FFFF43B6CEB1B2B232B0B1B1622DF629290960FA01000000FFFF22BA0AC0268FE20814C7FF67
310
E0E6E666B0B1B166D0D5D3656060408CF11304384A013C8AE17632FCFF0F1F38E2E0E060E0E4E284CC2C323232FCFE0369247EFDFA157E90328659C42404343641F7E1548CA31E80966C90862E2BFC8877A2231A6B22C1DD3B00000000FFFFAC5DC10E8020087D1496FF62FFFF27F6279DC4EA40A9B9691DF2E81E834D40D0
310
8DC7B5F6F762B0D72164CC7E28DDC9E21C0C33BC5F2151405C7EFDFCBB6EDB0957A7304CE0912146397382040409889BCE3DB0B3D5B9BAF4E53DACE5081D074195DE9B773F908E31453E834A3E46CA38CAF04AFAA92BEF34C138010000FFFFA49D490AC0200C45BF53ADBD88F7BF4A4E934D4917D53A83D0BD311FBE2438E0
310
B3D828FF3BA6AF76074A29C41811C205220233FF5A047D7BE84FFEA4129B8926C66838EB70DCEE239267848D361AA7F7E95BF5977FD0649B9AB6D23EC66655D3184179529F8CB7151BA0DC7CA231A0317B689FD20F4235CB20F3010000FFFF9C5D410E80200CEB60CA1FF4FFEF7327BD007A980A2804632F1C6842C6BA8440
310
58B995D8DAA5CE83D01145E26897F080799EB08840441011B52721A8B93F39FA72A908E19A2182B5EAAFC3ACCFCCDE9F4E5A3E600D1B40FA31D68DEE76E748EB7E3DD4FDC0AEC11B6B303017EE5F37258FB118DE95D94EF65EEAF1C4010000FFFF945D310E80200C3CD4960FE0FFDFC7466483983A600902893AB134A4706D
310
2909DC3547C05BF9C707D0277388C07B8F2346103376E760D922848094531542A86FFF048019AE0ECDF863C76516086B21BED80827176EFE7C339DA9A045F9BA4E20A28754AEFAD077ED7F624057A6FC09450164A9F2F063E29911C421C9FBB23F075B26B617000000FFFFA49DB10E80200C44AF22984822FFFF9752571487
310
161263D5C191C0D6F6DA81DE1B7F57FACB3D118199915998B9F51026514A0B629CC1BC61CDAB40161B33CFCA01954AB292E3261F866C57E836931C084AE1701EF01E5EBFA277CA66D9C5FFB094DE12A610E0D453B911D32E99F9A10A15555CD40040D7EE8741CCB44881CD97503C54B915446B2EB0DFDD5BC4090000FFFF9C
310
9DBB0EC0200845B1AF38D6FFFFC3BAD9A94AB5C3151B13FB7496C59B1B09014EBB7FE88FD3AB70FCFDCC4C8BB5C421E4844662B148D29899B4D6E4565780C6654A58E1D19EE703BFF90FEC83938E0AEE1E783D6918294ED8511093801FC1DDDDBCA79EF7922788D82A0B89B9C7B3B45DA35EBAD2F320C28302A2881AAEBF74
310
F91BC16FC4AEEEE573000000FFFF8C9D3112C0200804CFA4C00FE4FF7F8C85A385A6C00BA3A3891D0515B31E5708ECB7801F28664A9252468C115C4CD365948AEA00EF052217724EB84350106AC181390826022B25F832149D4930C3F8AEC65718DCE958111B6D6B31CFBF11668EC7294CC3CFE5D63A78E489726F27DF8159
310
D197AF7C4709566671CC6BD1030000FFFFC25F059011E9C800725FDD7F9CE6200F2AB1B1B131080B0931FCFAF59BE1F397CF0C3F7EFC80F77D19991011C708AD0B20175A30206D58454A1338D300360958A9809418602B9418191998981991723CC2146400A90D18916846B83BFE334076E9324157E9C21203D6BA1E89222E
310
97635383A70188C52C00000000FFFFA45D410E803008EB343E60FEFF8D9CF4A4010F3840B82CF134766BD26E6D960CAA05FCF0FC788B30338848874D2FDE0C2A15B673216CD87BD761D3F785F3781F6E4487597810F433A0E48FCE210D1E2943780822315789B5E16F8668882C929A492E3A13D19FD02C66034AFC8A617F30
310
E49823FCB3E44C301B006B1E00040F000000FFFFA45D410AC0200CCB70FEFFC36ED9A18DD43A85B19BD00AC5A451A810393EFF007DAD047D2CEBF1216B41065957D67AF6FF80F2236A579B55810EB848804082634706BD02BC061124AE697B41BAD2CC5D18BBFFA64DEC4A3117B66EEDCA744601E95759DFDCE39F5420819D
310
F300E0010000FFFF8C9DB10E80200C445F5D0447F9FFBF94C8A0E050080434C8D4846E57EE8EA5F72901337A9FFE1E28ECDFD9F9A1621886D4548B08D61A8C593510F1BA08A7CAC31D6FF505991C6899A0BC64919734F476D30824D15E05B8DCD71AE8C0AFAB6962D210AD1002FEF020E076C7B6593596C56BE43307EB43EB
310
FBA1F8C3021D446F83F1000000FFFF945DD10A80200C3C05B537F3FF7F33A145B91E863A92A4DED4C373703A41DCF6EB297826FA136396DA345B56964CAE80B1F3DC0C68912F4B08AD80159722398CE868D130D6D68C80DD233416A3C5544B9937B0F208CC5C504E0956A183403BC92FE5AB97B9CF39C33B8F9412E21AE19D
310
93F9D5A374627C39C1FF0537BA89615471DD000000FFFF9C5D4D0B80200C7DAE79F16048FDFFFF57878475923EE8102E8BA8E82E53F6B6E7988FC96FA0FFA57F224208013146AD922F7BDF06C4D760206340D622A5041181C888AA2230339C7387D49CF6C7A1B2756CE8A2062CE93DB39681CE2CC823EFD665D58FB3F6EB08
310
AA70CE1DBC7CD0699ED1F51D8638A06D1A785F832DE3E46CC5E319D02F197E5EF3520714B636000000FFFFA49DCD0AC32010843FB591F42434EFFF7CE90F340924E0216A0F1AAB4528B4274157901D991945DC5313BF3FDCFF311642406B4DDF9FD9B6357174BDA25F37C37163B6CC0BE3758C95CB95C2FB088EB5364F9342
310
C6C443D6FC4E7709B0A4DDDE572AB5BB3DB58EF2C30A10EF27EDA238CA65635A1009019038E7B9DD1F3CA789E132608C412AF991C3961F6800FA8D258A989681AC7A53DC0B0000FFFF949D4F0B80200CC57F238F1D8AFAFE1FD0535114696087B26642D86EE243646F3CE61FB6E27B803FF21FCD1843DF772CEB92638A084F
310
E704389B536F586B19C6E17EFE8534D388448410F0CEA301CE3B058A268A4775A493A77A99644E7F3B587F6ABB02A23A77B45F8A30CD136DD352C7CA5D2AB842B2D6B70AE48497247E4232040E000000FFFFC23B0E40EE1801B23E1E1E1E064E682900194F27A304F80F8978064606868F1F3F313C7BFE8CE1F7AFDF0CCC2C
310
2CA8C7A64049A40C89993B519563461E163EE69A4506AC09024D058AAB60B9FEDBB7EF0C3FBEFF6010F821C020C02F0059CB081D68C29ACB29A81630DB02FF51B530303000000000FFFF0300E3B6A64C96CFDE170000000049454E44AE426082504B010214000A000008000064500D453DEE336E79000000790000001B0000
310
0000000000000000000000000000006175746F6465736B2D64657369676E2D7061636B6167652E786D6C504B0102140014000608080064500D4565017641AD000000260100001300000000000000000000000000B20000005B436F6E74656E745F54797065735D2E786D6C504B0102140014000608080064500D45132A07D6
310
E80000007C010000080000000000000000000000000090010000636F72652E786D6C504B0102140014000608080064500D4555019EA25F0000007C00000007000000000000000000000000009E020000636E782E786D6C504B0102140014000608080064500D45648F4DA86E010000D40300000C0000000000000000000000
310
0000220300006662782F636F72652E786D6C504B0102140014000608080064500D45657B478E7E0000009D0000000B00000000000000000000000000BA0400006662782F636E782E786D6C504B0102140014000608080064500D4581027CF229010000120200003100000000000000000000000000610500006662782F4544
310
4638423746352D313241462D343244442D413835392D4135303339383039393636432F636F72652E786D6C504B0102140014000608080064500D45DB0835104C010000330300003000000000000000000000000000D90600006662782F45444638423746352D313241462D343244442D413835392D41353033393830393936
310
36432F636E782E786D6C504B0102140014000608080064500D452B120B21B9050000051100003400000000000000000000000000730800006662782F45444638423746352D313241462D343244442D413835392D4135303339383039393636432F6F626A656374732E786D6C504B0102140014000608000064500D45000000
310
00000000000000000035000000000000000000000000007E0E00006662782F45444638423746352D313241462D343244442D413835392D4135303339383039393636432F76657274696365732E62696E504B0102140014000608080064500D45F270F13306000000040000003600000000000000000000000000D10E000066
310
62782F45444638423746352D313241462D343244442D413835392D4135303339383039393636432F747269616E676C65732E62696E504B0102140014000608000064500D4500000000000000000000000037000000000000000000000000002B0F00006662782F45444638423746352D313241462D343244442D413835392D
310
4135303339383039393636432F617474726962757465732E62696E504B0102140014000608080064500D4508DA0BD190000000410100003600000000000000000000000000800F00006662782F45444638423746352D313241462D343244442D413835392D4135303339383039393636432F6469726563746F72792E786D6C
310
504B0102140014000608080064500D45C1608DD6FB000000A00100003B00000000000000000000000000641000006662782F45444638423746352D313241462D343244442D413835392D4135303339383039393636432F7265736F75726365732F636F72652E786D6C504B0102140014000608080064500D452DEF20765E00
310
00007A0000003A00000000000000000000000000B81100006662782F45444638423746352D313241462D343244442D413835392D4135303339383039393636432F7265736F75726365732F636E782E786D6C504B0102140014000608080064500D45A6967D30F6000000980100003D000000000000000000000000006E1200
310
006662782F45444638423746352D313241462D343244442D413835392D4135303339383039393636432F7265736F75726365732F332F636F72652E786D6C504B0102140014000608080064500D451EC9B0F628010000C20100003C00000000000000000000000000BF1300006662782F45444638423746352D313241462D34
310
3244442D413835392D4135303339383039393636432F7265736F75726365732F332F636E782E786D6C504B010214000A000008000064500D4588E5759790410000904100004200000000000000000000000000411500006662782F45444638423746352D313241462D343244442D413835392D413530333938303939363643
310
2F7265736F75726365732F332F305F67656E657269632E706E67504B050600000000120012002D060000315700000000
  0
XRECORD
  5
113
102
{ACAD_REACTORS
330
110
102
}
330
110
100
AcDbXrecord
280
     1
270
     1
271
     1
  0
XRECORD
  5
114
102
{ACAD_REACTORS
330
110
102
}
330
110
100
AcDbXrecord
280
     1
270
     1
271
     1
  0
CELLSTYLEMAP
  5
7FF
102
{ACAD_REACTORS
330
104
102
}
330
104
100
AcDbCellStyleMap
 90
        3
300
CELLSTYLE
  1
TABLEFORMAT_BEGIN
 90
        5
170
     1
 91
        0
 92
    32768
 62
   257
 93
        1
300
CONTENTFORMAT
  1
CONTENTFORMAT_BEGIN
 90
        0
 91
        0
 92
      512
 93
        0
300

 40
0.0
140
1.0
 94
        5
 62
     0
340
11
144
0.25
309
CONTENTFORMAT_END
171
     1
301
MARGIN
  1
CELLMARGIN_BEGIN
 40
0.06
 40
0.06
 40
0.06
 40
0.06
 40
0.18
 40
0.18
309
CELLMARGIN_END
 94
        6
 95
        1
302
GRIDFORMAT
  1
GRIDFORMAT_BEGIN
 90
        0
 91
        1
 62
     0
 92
       -2
340
0
 93
        0
 40
0.045
309
GRIDFORMAT_END
 95
        2
302
GRIDFORMAT
  1
GRIDFORMAT_BEGIN
 90
        0
 91
        1
 62
     0
 92
       -2
340
0
 93
        0
 40
0.045
309
GRIDFORMAT_END
 95
        4
302
GRIDFORMAT
  1
GRIDFORMAT_BEGIN
 90
        0
 91
        1
 62
     0
 92
       -2
340
0
 93
        0
 40
0.045
309
GRIDFORMAT_END
 95
        8
302
GRIDFORMAT
  1
GRIDFORMAT_BEGIN
 90
        0
 91
        1
 62
     0
 92
       -2
340
0
 93
        0
 40
0.045
309
GRIDFORMAT_END
 95
       16
302
GRIDFORMAT
  1
GRIDFORMAT_BEGIN
 90
        0
 91
        1
 62
     0
 92
       -2
340
0
 93
        0
 40
0.045
309
GRIDFORMAT_END
 95
       32
302
GRIDFORMAT
  1
GRIDFORMAT_BEGIN
 90
        0
 91
        1
 62
     0
 92
       -2
340
0
 93
        0
 40
0.045
309
GRIDFORMAT_END
309
TABLEFORMAT_END
  1
CELLSTYLE_BEGIN
 90
        1
 91
        1
300
_TITLE
309
CELLSTYLE_END
300
CELLSTYLE
  1
TABLEFORMAT_BEGIN
 90
        5
170
     1
 91
        0
 92
        0
 62
   257
 93
        1
300
CONTENTFORMAT
  1
CONTENTFORMAT_BEGIN
 90
        0
 91
        0
 92
      512
 93
        0
300

 40
0.0
140
1.0
 94
        5
 62
     0
340
11
144
0.18
309
CONTENTFORMAT_END
171
     1
301
MARGIN
  1
CELLMARGIN_BEGIN
 40
0.06
 40
0.06
 40
0.06
 40
0.06
 40
0.18
 40
0.18
309
CELLMARGIN_END
 94
        6
 95
        1
302
GRIDFORMAT
  1
GRIDFORMAT_BEGIN
 90
        0
 91
        1
 62
     0
 92
       -2
340
0
 93
        0
 40
0.045
309
GRIDFORMAT_END
 95
        2
302
GRIDFORMAT
  1
GRIDFORMAT_BEGIN
 90
        0
 91
        1
 62
     0
 92
       -2
340
0
 93
        0
 40
0.045
309
GRIDFORMAT_END
 95
        4
302
GRIDFORMAT
  1
GRIDFORMAT_BEGIN
 90
        0
 91
        1
 62
     0
 92
       -2
340
0
 93
        0
 40
0.045
309
GRIDFORMAT_END
 95
        8
302
GRIDFORMAT
  1
GRIDFORMAT_BEGIN
 90
        0
 91
        1
 62
     0
 92
       -2
340
0
 93
        0
 40
0.045
309
GRIDFORMAT_END
 95
       16
302
GRIDFORMAT
  1
GRIDFORMAT_BEGIN
 90
        0
 91
        1
 62
     0
 92
       -2
340
0
 93
        0
 40
0.045
309
GRIDFORMAT_END
 95
       32
302
GRIDFORMAT
  1
GRIDFORMAT_BEGIN
 90
        0
 91
        1
 62
     0
 92
       -2
340
0
 93
        0
 40
0.045
309
GRIDFORMAT_END
309
TABLEFORMAT_END
  1
CELLSTYLE_BEGIN
 90
        2
 91
        1
300
_HEADER
309
CELLSTYLE_END
300
CELLSTYLE
  1
TABLEFORMAT_BEGIN
 90
        5
170
     1
 91
        0
 92
        0
 62
   257
 93
        1
300
CONTENTFORMAT
  1
CONTENTFORMAT_BEGIN
 90
        0
 91
        0
 92
      512
 93
        0
300

 40
0.0
140
1.0
 94
        2
 62
     0
340
11
144
0.18
309
CONTENTFORMAT_END
171
     1
301
MARGIN
  1
CELLMARGIN_BEGIN
 40
0.06
 40
0.06
 40
0.06
 40
0.06
 40
0.18
 40
0.18
309
CELLMARGIN_END
 94
        6
 95
        1
302
GRIDFORMAT
  1
GRIDFORMAT_BEGIN
 90
        0
 91
        1
 62
     0
 92
       -2
340
0
 93
        0
 40
0.045
309
GRIDFORMAT_END
 95
        2
302
GRIDFORMAT
  1
GRIDFORMAT_BEGIN
 90
        0
 91
        1
 62
     0
 92
       -2
340
0
 93
        0
 40
0.045
309
GRIDFORMAT_END
 95
        4
302
GRIDFORMAT
  1
GRIDFORMAT_BEGIN
 90
        0
 91
        1
 62
     0
 92
       -2
340
0
 93
        0
 40
0.045
309
GRIDFORMAT_END
 95
        8
302
GRIDFORMAT
  1
GRIDFORMAT_BEGIN
 90
        0
 91
        1
 62
     0
 92
       -2
340
0
 93
        0
 40
0.045
309
GRIDFORMAT_END
 95
       16
302
GRIDFORMAT
  1
GRIDFORMAT_BEGIN
 90
        0
 91
        1
 62
     0
 92
       -2
340
0
 93
        0
 40
0.045
309
GRIDFORMAT_END
 95
       32
302
GRIDFORMAT
  1
GRIDFORMAT_BEGIN
 90
        0
 91
        1
 62
     0
 92
       -2
340
0
 93
        0
 40
0.045
309
GRIDFORMAT_END
309
TABLEFORMAT_END
  1
CELLSTYLE_BEGIN
 90
        3
 91
        2
300
_DATA
309
CELLSTYLE_END
  0
ENDSEC
  0
EOF
